Alguien tiene los .cue de los forbiden paradise de tiesto
Resultados 1 al 15 de 15
  1. #1
    Fecha de ingreso
    18 abril 2005
    Ubicación
    La cucha
    Edad
    34
    Agradecimientos

    Alguien tiene los .cue de los forbiden paradise de tiesto

    si si alguien tiene los .cue, tengo los once discos pero sin los cue, por favor quien tenga alguno lo diga q lo agrego al msn para q me los pase.
    desde ya muchas gracias
    Contacto Msn: [email protected]

  2. #2
    Fecha de ingreso
    02 junio 1998
    Ubicación
    Plus Ultra
    Agradecimientos

    Re: Alguien tiene los .cue de los forbiden paradise de tiesto

    No te hagas ilusiones, pero es muuuuuuy probable que lo tenga, tengo cerca de 60k cues en casa (sisi, adicto maaL) en un par de horas te digo bien.

  3. #3
    Fecha de ingreso
    18 abril 2005
    Ubicación
    La cucha
    Edad
    34
    Agradecimientos

    Re: Alguien tiene los .cue de los forbiden paradise de tiesto

    gracias cobra!
    Contacto Msn: [email protected]

  4. #4
    Fecha de ingreso
    09 abril 2005
    Ubicación
    Malaysia
    Agradecimientos

    Feliz Re: Alguien tiene los .cue de los forbiden paradise de tiesto

    Toma te rescate un par:

    Forbidden Paradise 03 - The Quest for Atlantis
    Código:
    TITLE "Dj Tiesto - Forbidden Paradise 03 - The Quest for Atlantis"
    PERFORMER "Unknown Artist"
    REM ** downloaded at Spandel.nL **
    FILE "Unknown Artist - Dj Tiesto - Forbidden Paradise 03 - The Quest for Atlantis.mp3" MP3
    TRACK 01 AUDIO
    TITLE "01. Forbidden Paradise 3 - Cyberheads - Bird Of Dawning.mp3"
    PREGAP 00:00:00
    INDEX 01 00:00:00
    TRACK 02 AUDIO
    TITLE "02. Forbidden Paradise 3 - PHD - Summer Storm EP- Leisure Lounge Edit.mp3"
    INDEX 01 03:43:53
    TRACK 03 AUDIO
    TITLE "03. Forbidden Paradise 3 - Cherry Bomb - Eclipse.mp3"
    INDEX 01 08:51:18
    TRACK 04 AUDIO
    TITLE "04. Forbidden Paradise 3 - Blue Minds - The Beginning- Aquapunch (3 In One Mix).mp3"
    INDEX 01 15:14:36
    TRACK 05 AUDIO
    TITLE "05. Forbidden Paradise 3 - Alici - Silver Clouds In A Yellow Sky.mp3"
    INDEX 01 18:26:03
    TRACK 06 AUDIO
    TITLE "06. Forbidden Paradise 3 - Aura - Energy Transpose.mp3"
    INDEX 01 23:39:32
    TRACK 07 AUDIO
    TITLE "07. Forbidden Paradise 3 - Digital Express - The Club.mp3"
    INDEX 01 28:04:15
    TRACK 08 AUDIO
    TITLE "08. Forbidden Paradise 3 - DJ Misjah & DJ Tim - Access.mp3"
    INDEX 01 31:52:50
    TRACK 09 AUDIO
    TITLE "09. Forbidden Paradise 3 - Dynamic Maniax - Calling Middle Earth.mp3"
    INDEX 01 36:08:01
    TRACK 10 AUDIO
    TITLE "10. Forbidden Paradise 3 - Azid Force - Magic Mushroom EP- Amanita Muscara.mp3"
    INDEX 01 40:23:07
    TRACK 11 AUDIO
    TITLE "11. Forbidden Paradise 3 - Encephaloid Disturbance - Anaesthetic Influx.mp3"
    INDEX 01 45:46:62
    TRACK 12 AUDIO
    TITLE "12. Forbidden Paradise 3 - West & Storm - Porpoise.mp3"
    INDEX 01 50:08:23
    TRACK 13 AUDIO
    TITLE "13. Forbidden Paradise 3 - Cortex Thrill - Infiltration EP- Deep Infinity.mp3"
    INDEX 01 56:08:54
    TRACK 14 AUDIO
    TITLE "14. Forbidden Paradise 3 - Karma De La Luna - Impulses Are NRG (Maurits NRG Trance Mix).mp3"
    INDEX 01 60:28:01
    TRACK 15 AUDIO
    TITLE "15. Forbidden Paradise 3 - Juno - A Force Beyond.mp3"
    INDEX 01 66:14:30
    TRACK 16 AUDIO
    TITLE "16. Forbidden Paradise 3 - Berlin Inc. - Berlin (Peace Mix).mp3"
    INDEX 01 71:04:37
    TRACK 17 AUDIO
    TITLE "17. Forbidden Paradise 3 - T-Scanner - Trip To Heaven.mp3"
    INDEX 01 73:31:28
    Forbidden Paradise 03 - The Quest for Atlantis CD2
    Código:
    PERFORMER "DJ Tiesto"
    TITLE "Forbidden Paradise 03 - The Quest for Atlantis"
    REM ** downloaded at Spandel.nL **
    FILE "Forbidden Paradise 03 - The Quest for Atlantis (Mixed By DJ Tiesto).mp3" MP3
    TRACK 01 AUDIO
    INDEX 01 0:00:00
    TRACK 02 AUDIO
    INDEX 01 3:43:69
    TRACK 03 AUDIO
    INDEX 01 8:49:94
    TRACK 04 AUDIO
    INDEX 01 15:12:20
    TRACK 05 AUDIO
    INDEX 01 18:23:47
    TRACK 06 AUDIO
    INDEX 01 23:36:38
    TRACK 07 AUDIO
    INDEX 01 27:59:80
    TRACK 08 AUDIO
    INDEX 01 31:48:42
    TRACK 09 AUDIO
    INDEX 01 36:03:31
    TRACK 10 AUDIO
    INDEX 01 40:17:50
    TRACK 11 AUDIO
    INDEX 01 45:40:76
    TRACK 12 AUDIO
    INDEX 01 50:01:64
    TRACK 13 AUDIO
    INDEX 01 56:01:30
    TRACK 14 AUDIO
    INDEX 01 60:19:93
    TRACK 15 AUDIO
    INDEX 01 66:05:38
    TRACK 16 AUDIO
    INDEX 01 70:54:61
    TRACK 17 AUDIO
    INDEX 01 73:20:13
    Forbidden Paradise 4 - High as a Kite
    Código:
    TITLE "Forbidden Paradise 4 -High as a Kite-"
    PERFORMER "Various"
    REM ** Generated by CueMaster v1.5 **
    REM Time : 67:05:00
    REM Length: 4025 seconds
    REM Genre : Trance
    REM DiscID: f80fb711
    FILE "Various - Forbidden Paradise 4 -High as a Kite-.mp3" MP3
    TRACK 01 AUDIO
    TITLE "Plankton"
    PERFORMER "Sunrise Acid"
    PREGAP 00:02:00
    INDEX 01 00:00:00
    TRACK 02 AUDIO
    TITLE "Endlos"
    PERFORMER "Endlos"
    INDEX 01 04:57:54
    TRACK 03 AUDIO
    TITLE "Blue Minds"
    PERFORMER "Reflections"
    INDEX 01 08:02:41
    TRACK 04 AUDIO
    TITLE "Groove Park"
    PERFORMER "Hit The Bang"
    INDEX 01 10:39:26
    TRACK 05 AUDIO
    TITLE "Quench"
    PERFORMER "Dreams"
    INDEX 01 15:22:25
    TRACK 06 AUDIO
    TITLE "Nail"
    PERFORMER "The Beeston"
    INDEX 01 19:01:35
    TRACK 07 AUDIO
    TITLE "Emmanuel Top"
    PERFORMER "Tone"
    INDEX 01 24:04:64
    TRACK 08 AUDIO
    TITLE "Axial Force"
    PERFORMER "Structures"
    INDEX 01 28:19:66
    TRACK 09 AUDIO
    TITLE "Razors Edge"
    PERFORMER "Tribal Sunrise"
    INDEX 01 29:47:63
    TRACK 10 AUDIO
    TITLE "Humate"
    PERFORMER "3.1"
    INDEX 01 35:54:20
    TRACK 11 AUDIO
    TITLE "Bassline Baby"
    PERFORMER "Computer Controlled"
    INDEX 01 41:06:62
    TRACK 12 AUDIO
    TITLE "Toya"
    PERFORMER "The Home of The Big Beat"
    INDEX 01 44:51:24
    TRACK 13 AUDIO
    TITLE "Dr. Fernando"
    PERFORMER "High Pressure"
    INDEX 01 48:21:64
    TRACK 14 AUDIO
    TITLE "Cortex Thrill"
    PERFORMER "Euphoria"
    INDEX 01 51:18:46
    TRACK 15 AUDIO
    TITLE "Aura"
    PERFORMER "Planet-S"
    INDEX 01 56:21:48
    TRACK 16 AUDIO
    TITLE "Fast Trac"
    PERFORMER "Inertia"
    INDEX 01 58:49:22
    TRACK 17 AUDIO
    TITLE "Blue Ocean"
    PERFORMER "Blue Ocean"
    INDEX 01 62:49:27
    Forbidden Paradise 5 - Arctic Expedition
    Código:
    TITLE "Forbidden Paradise 5: Arctic Expedition"
    PERFORMER "Forbidden Paradise"
    REM ** Generated by CueMaster v1.5 **
    REM Time : 72:29:00
    REM Length: 4349 seconds
    REM DiscID: fe10fb10
    FILE "Forbidden Paradise - Forbidden Paradise 5_ Arctic Expedition.mp3" MP3
    TRACK 01 AUDIO
    TITLE "Hidden Clouds (Attic Mix)"
    PERFORMER "Coyote"
    PREGAP 00:02:00
    INDEX 01 00:00:00
    TRACK 02 AUDIO
    TITLE "No One"
    PERFORMER "Clino"
    INDEX 01 05:03:64
    TRACK 03 AUDIO
    TITLE "Future Power (Toja Remix)"
    PERFORMER "John Chevalier"
    INDEX 01 09:47:13
    TRACK 04 AUDIO
    TITLE "Prophase (X-Cabs Remix 1)"
    PERFORMER "Transa"
    INDEX 01 13:14:40
    TRACK 05 AUDIO
    TITLE "Don't Be Afraid"
    PERFORMER "Moonman"
    INDEX 01 17:51:30
    TRACK 06 AUDIO
    TITLE "Joseph Otten"
    PERFORMER "Baltique"
    INDEX 01 21:18:58
    TRACK 07 AUDIO
    TITLE "Trance Dance (Phi-Phi & Greg D. Remix)"
    PERFORMER "Groove Connexion"
    INDEX 01 25:14:03
    TRACK 08 AUDIO
    TITLE "The Next Chapter"
    PERFORMER "Stray Dog"
    INDEX 01 30:17:00
    TRACK 09 AUDIO
    TITLE "Volume III"
    PERFORMER "Junk Project"
    INDEX 01 35:05:23
    TRACK 10 AUDIO
    TITLE "Florida 135"
    PERFORMER "Phutura"
    INDEX 01 41:37:15
    TRACK 11 AUDIO
    TITLE "A Funky Ass Track"
    PERFORMER "Toja 3"
    INDEX 01 45:20:54
    TRACK 12 AUDIO
    TITLE "Resolution"
    PERFORMER "Wave Shaping Age"
    INDEX 01 48:53:63
    TRACK 13 AUDIO
    TITLE "Are Am Eye? (Commander Tom Original Mix)"
    PERFORMER "Commander Tom"
    INDEX 01 53:45:22
    TRACK 14 AUDIO
    TITLE "In Complete Darkness"
    PERFORMER "Angeldust"
    INDEX 01 57:55:63
    TRACK 15 AUDIO
    TITLE "Acceleration (Zion Train Remix Dubtribe)"
    PERFORMER "Dub Clash '96"
    INDEX 01 61:19:32
    TRACK 16 AUDIO
    TITLE "Transfiguration"
    PERFORMER "DJ Dave Davis"
    INDEX 01 66:16:22
    Forbidden Paradise 6 - Valley Of Fire
    Código:
    TITLE "Valley Of Fire"
    PERFORMER "Forbidden Paradise 6"
    REM ** Generated by CueMaster v1.5 **
    REM Time : 73:59:00
    REM Length: 4439 seconds
    REM Genre : Trance
    REM DiscID: d3115510
    FILE "Forbidden Paradise 6 - Valley Of Fire.mp3" MP3
    TRACK 01 AUDIO
    TITLE "Lonely Days (Lonely Mix)"
    PERFORMER "Comma"
    PREGAP 00:02:00
    INDEX 01 00:00:00
    TRACK 02 AUDIO
    TITLE "Emulation"
    PERFORMER "Mockba"
    INDEX 01 05:26:34
    TRACK 03 AUDIO
    TITLE "Dream Universe"
    PERFORMER "C.M."
    INDEX 01 10:53:07
    TRACK 04 AUDIO
    TITLE "Rude Entry"
    PERFORMER "Mind To Mind"
    INDEX 01 14:34:16
    TRACK 05 AUDIO
    TITLE "Transvision"
    PERFORMER "Ultrax"
    INDEX 01 18:39:12
    TRACK 06 AUDIO
    TITLE "Flute Lore (Altered State II remix)"
    PERFORMER "Infinite Wheel"
    INDEX 01 22:30:17
    TRACK 07 AUDIO
    TITLE "We'll Meet Again"
    PERFORMER "West & Storm"
    INDEX 01 27:02:06
    TRACK 08 AUDIO
    TITLE "9000 Miles (Remix)"
    PERFORMER "Stonemaker"
    INDEX 01 31:54:07
    TRACK 09 AUDIO
    TITLE "Interspace"
    PERFORMER "The Discodroids"
    INDEX 01 35:11:35
    TRACK 10 AUDIO
    TITLE "The Future Invasion (The Theme)"
    PERFORMER "The Object"
    INDEX 01 40:51:44
    TRACK 11 AUDIO
    TITLE "Cyberia (Deep Trance Mix)"
    PERFORMER "Bypass"
    INDEX 01 44:02:04
    TRACK 12 AUDIO
    TITLE "Chemical Air"
    PERFORMER "Mark 1"
    INDEX 01 48:18:50
    TRACK 13 AUDIO
    TITLE "3D"
    PERFORMER "Jay Ray"
    INDEX 01 53:21:40
    TRACK 14 AUDIO
    TITLE "Clown Confusion (Midget Mix)"
    PERFORMER "Marco Zaffarano"
    INDEX 01 57:06:48
    TRACK 15 AUDIO
    TITLE "Netherworld (Vinyl Cut)"
    PERFORMER "L.S.G."
    INDEX 01 63:55:67
    TRACK 16 AUDIO
    TITLE "F.A.D.O. (There Must Be A Future)"
    PERFORMER "J.F. Sebastian"
    INDEX 01 69:44:69
    Forbidden Paradise 7 - Deep Forest
    Código:
    TITLE "Forbidden Paradise 7 Deep Forest"
    PERFORMER "Mixed by Tiesto"
    REM ** Generated by CueMaster v1.5 **
    REM Time : 73:49:00
    REM Length: 4429 seconds
    REM DiscID: ed114b10
    FILE "Mixed by Tiesto - Forbidden Paradise 7 Deep Forest.mp3" MP3
    TRACK 01 AUDIO
    TITLE "No Fate (Quadran Mix)"
    PERFORMER "Limited Growth"
    PREGAP 00:02:00
    INDEX 01 00:00:00
    TRACK 02 AUDIO
    TITLE "Details (Dos Deviants Deadly Dub)"
    PERFORMER "Stef & Vincent De Moor"
    INDEX 01 04:02:22
    TRACK 03 AUDIO
    TITLE "Funkdamental"
    PERFORMER "Angelo"
    INDEX 01 09:42:03
    TRACK 04 AUDIO
    TITLE "My Style"
    PERFORMER "Steve Baltes"
    INDEX 01 15:56:42
    TRACK 05 AUDIO
    TITLE "Ammenekoejoen"
    PERFORMER "Carlos"
    INDEX 01 20:06:05
    TRACK 06 AUDIO
    TITLE "Greece 2000"
    PERFORMER "Three Drives On A Vinyl"
    INDEX 01 24:29:51
    TRACK 07 AUDIO
    TITLE "Transcend"
    PERFORMER "Cascade"
    INDEX 01 29:27:65
    TRACK 08 AUDIO
    TITLE "First Light (extended Mix)"
    PERFORMER "MoonMan"
    INDEX 01 33:23:30
    TRACK 09 AUDIO
    TITLE "Wasteland"
    PERFORMER "Sirenal"
    INDEX 01 38:29:63
    TRACK 10 AUDIO
    TITLE "Atlantis (Phase III)"
    PERFORMER "Dj Taucher"
    INDEX 01 42:39:09
    TRACK 11 AUDIO
    TITLE "Meladonic"
    PERFORMER "Hammock Brothers"
    INDEX 01 49:05:12
    TRACK 12 AUDIO
    TITLE "Everlasting Fire"
    PERFORMER "Energy Source"
    INDEX 01 52:34:13
    TRACK 13 AUDIO
    TITLE "Words (For Love)"
    PERFORMER "Paul Van Dyk"
    INDEX 01 56:45:37
    TRACK 14 AUDIO
    TITLE "Spaced Entreance"
    PERFORMER "Pedro & Benno"
    INDEX 01 61:56:48
    TRACK 15 AUDIO
    TITLE "The Face (In Heaven Mix)"
    PERFORMER "Trancefixion"
    INDEX 01 64:50:72
    TRACK 16 AUDIO
    TITLE "The Wave"
    PERFORMER "Sosa"
    INDEX 01 67:56:51
    hasta ahi te consegui si despues consigo mas edito.

    esto fueron los .cue para Forbidden Paradise espero ke les haya gustado
    chau!

  5. #5
    Fecha de ingreso
    18 abril 2005
    Ubicación
    La cucha
    Edad
    34
    Agradecimientos

    Re: Alguien tiene los .cue de los forbiden paradise de tiesto

    jaja grax snoop sos un capo, pero no tengo la mas palida idea de como pasarlo a archivito???????
    Contacto Msn: [email protected]

  6. #6
    Fecha de ingreso
    02 junio 1998
    Ubicación
    Plus Ultra
    Agradecimientos

    Re: Alguien tiene los .cue de los forbiden paradise de tiesto

    Cita Iniciado por Cruza Pitbull/Rottweiler
    jaja grax snoop sos un capo, pero no tengo la mas palida idea de como pasarlo a archivito???????
    abri el block de notas, pega cada cosa en uno diff, y guardalo con extension .cue

  7. #7
    Fecha de ingreso
    09 abril 2005
    Ubicación
    Malaysia
    Agradecimientos

    Re: Alguien tiene los .cue de los forbiden paradise de tiesto

    de nada

    Archivo> nuevo archivo .txt

    volcas cada disco dentro del mismo y a cada uno le pones el nombre del disco ke corresponde.cue y ahi deberia de funcionar... esto deberia ser asi en teoria pero nunca los use asi ke todo es posible


    adi0h*

  8. #8
    Fecha de ingreso
    26 marzo 2005
    Ubicación
    Banfield
    Edad
    36
    Agradecimientos

    Exclamacion Re: Alguien tiene los .cue de los forbiden paradise de tiesto

    [font=Courier New]Cruza, pasame los nombres exactos de los .mp3´s que te acaban de pasar los .cue que te los paso.[/font]
    [font=Courier New]Saludos![/font]
    [FONT=Courier New]Pablo...[/FONT]
    [FONT=Courier New]Euphoria Party Staff[/FONT]

  9. #9
    Fecha de ingreso
    18 abril 2005
    Ubicación
    La cucha
    Edad
    34
    Agradecimientos

    Re: Alguien tiene los .cue de los forbiden paradise de tiesto

    dj tiesto - Forbidden Paradise 1 - The Garden of Evil
    dj tiesto - Forbidden Paradise 2 - The Beauty and the Beat
    DJ Tïesto - Forbidden Paradise 3 - The Quest for Atlantis
    dj tiesto - Forbidden Paradise 4 - High As a Kite
    DJ Tïesto - Forbidden Paradise 5
    DJ Tïesto - Forbidden Paradise 6 - Valley of fire
    DJ Tiesto - Forbidden Paradise 7 - Deep Forest
    DJ Tïesto - Forbidden Paradise 8 - Mystic Swamp
    DJ Tïesto - Forbidden Paradise 09 - Waves
    DJ Tiesto - Forbidden Paradise 10 - Djungii
    DJ Tiesto - Forbidden Paradise 11 - Face The Wild - CD1
    DJ Tiesto - Forbidden Paradise 11 - Face The Wild - CD2

    ahi estan todos los nombres tal cual los tengo yo!!
    grax pjl sos un grosoooooooooooooooooooooooooooooooooooooooooooooo ooooooo!!!
    agregame al msn asi me los pasas por ahi cuando puedas, yo no t agrego porq no esta tu contacto!!!!!
    de nuevo graxias!
    Contacto Msn: [email protected]

  10. #10
    Fecha de ingreso
    26 marzo 2005
    Ubicación
    Banfield
    Edad
    36
    Agradecimientos

    Guiño Re: Alguien tiene los .cue de los forbiden paradise de tiesto

    [font=Courier New]Acá te dejo zipeado los .cue del 3 al 7, fijate que me faltó el nombre del CD 2 del Forbidden Paradise 3, igual justo ese .cue no tiene los nombre, si conseguís el Tracklist después te digo cómo editarlo.[/font]
    [font=Courier New]Saludos![/font]
    Archivos adjuntados Archivos adjuntados
    [FONT=Courier New]Pablo...[/FONT]
    [FONT=Courier New]Euphoria Party Staff[/FONT]

  11. #11
    Fecha de ingreso
    18 abril 2005
    Ubicación
    La cucha
    Edad
    34
    Agradecimientos

    Re: Alguien tiene los .cue de los forbiden paradise de tiesto

    grax a todos!
    Contacto Msn: [email protected]

  12. #12
    Fecha de ingreso
    26 agosto 2005
    Ubicación
    San Justo
    Edad
    29
    Agradecimientos

    Re: Alguien tiene los .cue de los forbiden paradise de tiesto

    Una pregunta estos Forbidden Paradise de donde los puedo bajar ya que la verdad es la primera vez que escucho hablar de estos (vivo en una burbujaaa no? jaja) que son todos remixes de Tiesto?
    Buen graciass

  13. #13
    Fecha de ingreso
    02 junio 2007
    Ubicación
    Buenos Aires
    Agradecimientos

    Re: Alguien tiene los .cue de los forbiden paradise de tiesto

    perdon por bumpear pero necesito lo mismo

    gracias.


    y los forbidden los tenes aca http://www.nightclubber.com.ar/foro/...57-albums.html
    o aca Taringa! - DJ Tiësto: Megapost
    Última edición por Lamur; martes 03 julio de 2007 a las 20:18

  14. #14
    Fecha de ingreso
    02 junio 2007
    Ubicación
    Buenos Aires
    Agradecimientos

    Re: Alguien tiene los .cue de los forbiden paradise de tiesto

    vuelvo a pedir pasaron 2 dias

  15. #15
    Fecha de ingreso
    12 julio 2007
    Ubicación
    Debajo del Punte Alsina
    Agradecimientos

    Re: Alguien tiene los .cue de los forbiden paradise de tiesto

    Yo no guardo los cue aunque no ocupan nada jjaja
    en cuesheet heaven estan casi todos

Etiquetas para este tema

Información de tema

Usuarios viendo este tema

Actualmente hay 1 usuarios viendo este tema. (0 miembros y 1 visitantes)

Temas similares

  1. Pedido - Musica Alguien tiene estos de Tiesto
    Por lordyk en el foro Seccion para Pedidos
    Respuestas: 2
    Último mensaje: martes 25 diciembre de 2007, 14:39
  2. Pedido - Musica alguien tiene algo de 2 many djs ??
    Por mrod3000 en el foro Seccion para Pedidos
    Respuestas: 0
    Último mensaje: miércoles 19 septiembre de 2007, 13:38
  3. necesito!!! alguien lo tiene ??
    Por atu en el foro Archivo de Seccion para Pedidos
    Respuestas: 8
    Último mensaje: jueves 25 agosto de 2005, 14:55

Permisos de publicación

  • No puedes crear nuevos temas
  • No puedes responder temas
  • No puedes subir archivos adjuntos
  • No puedes editar tus mensajes
  •