Pedido - Cue Armin Van Buuren - Armin Only - DVD

-- Publicidad --

Aftercluv 6

Resultados 1 al 3 de 3
  1. #1
    Fecha de ingreso
    07 octubre 2005
    Ubicación
    Bahia Blanca
    Edad
    32
    Agradecimientos

    Armin Van Buuren - Armin Only - DVD

    buenas a todos...queria saber si tienen el .cue del set de armin van buuren only the next level...me baje el mp3 que dura 100:16...trate de buscarlo en las paginas de estos archivos pero nada

    gracias!!

  2. #2
    Fecha de ingreso
    02 junio 1998
    Ubicación
    Plus Ultra
    Agradecimientos

    Re: Alguien tiene el .cue de Armin Van Buuren DVD?

    PERFORMER "Armin van Buuren"
    TITLE "Armin Only The Next Level"
    FILE "NOMBRE DEL ARCHIVO MP3 AQUI" MP3
    TRACK 01 AUDIO
    TITLE "zocalo"
    PERFORMER "armin van buuren with gabriel & dresden"
    INDEX 01 00:00:00
    TRACK 02 AUDIO
    TITLE "hymne"
    PERFORMER "armin van buuren feat jan vayne with the voice of mc marxman"
    INDEX 01 01:52:72
    TRACK 03 AUDIO
    TITLE "sail"
    PERFORMER "armin van buuren"
    INDEX 01 04:32:24
    TRACK 04 AUDIO
    TITLE "renaissance"
    PERFORMER "arctic quest"
    INDEX 01 12:40:00
    TRACK 05 AUDIO
    TITLE "serenity"
    PERFORMER "armin van buuren feat jan vayne"
    INDEX 01 19:53:33
    TRACK 06 AUDIO
    TITLE "yet another day"
    PERFORMER "armin van buuren feat ray wilson"
    INDEX 01 24:06:30
    TRACK 07 AUDIO
    TITLE "play it louder"
    PERFORMER "randy katana"
    INDEX 01 31:44:60
    TRACK 08 AUDIO
    TITLE "playmo (1st play)"
    PERFORMER "bart claessen"
    INDEX 01 38:45:57
    TRACK 09 AUDIO
    TITLE "shivers (alex morph remix)"
    PERFORMER "armin van buuren feat susana"
    INDEX 01 43:44:24
    TRACK 10 AUDIO
    TITLE "the chamber"
    PERFORMER "inertia"
    INDEX 01 50:22:54
    TRACK 11 AUDIO
    TITLE "love you more"
    PERFORMER "armin van buuren feat racoon"
    INDEX 01 56:33:57
    TRACK 12 AUDIO
    TITLE "control feak (sander van doorn remix)"
    PERFORMER "armin van buuren"
    INDEX 01 63:58:18
    TRACK 13 AUDIO
    TITLE "who's watching (tonedepth remix)"
    PERFORMER "armin van buuren feat nadia ali"
    INDEX 01 68:25:45
    TRACK 14 AUDIO
    TITLE "bounce back"
    PERFORMER "armin van buuren ft remy & roland klinkenberg"
    INDEX 01 76:23:15
    TRACK 15 AUDIO
    TITLE "till ya drop (with jammin' bras live)"
    PERFORMER "remy & roland klinkenberg"
    INDEX 01 82:26:06
    TRACK 16 AUDIO
    TITLE "los huos del sol (zzino & guss carver fucked-up mix)"
    PERFORMER "tomaz vs filterheadz"
    INDEX 01 86:43:63
    TRACK 17 AUDIO
    TITLE "burned with desire (rising star remix)"
    PERFORMER "armin van buuren feat justine suissa"
    INDEX 01 91:44:24
    saludinessss

  3. #3
    Fecha de ingreso
    07 octubre 2005
    Ubicación
    Bahia Blanca
    Edad
    32
    Agradecimientos

    Re: Alguien tiene el .cue de Armin Van Buuren DVD?

    pero que grande señorr!! todos los que conseguian estaban mal hechos y este ta prefecto!...un abrazo grande y gracias denuevo!!

Etiquetas para este tema

Información de tema

Usuarios viendo este tema

Actualmente hay 1 usuarios viendo este tema. (0 miembros y 1 visitantes)

Temas similares

  1. Filmado en Fiesta Armin van Buuren - Ultra Music Festival "Armin van Buuren & Orjan Nilse - Belter"
    Por Ragnaro en el foro Videos de Fiestas en Vivo
    Respuestas: 0
    Último mensaje: jueves 03 mayo de 2012, 01:20
  2. Video Promocion Armin van Buuren & NNO - Classical Interpretations of Armin van Buuren (05-03-2010)
    Por Paulinho en el foro Clips & Videos de Promoción
    Respuestas: 1
    Último mensaje: domingo 07 marzo de 2010, 11:55
  3. Respuestas: 24
    Último mensaje: lunes 03 noviembre de 2008, 00:27

Permisos de publicación

  • No puedes crear nuevos temas
  • No puedes responder temas
  • No puedes subir archivos adjuntos
  • No puedes editar tus mensajes
  •