Southfest Buenos Aires 2005 (09.04.2005)

-- Publicidad --

Aftercluv 1

Página 1 de 2 1 2 ÚltimoÚltimo
Resultados 1 al 20 de 38
  1. #1
    Fecha de ingreso
    02 junio 1998
    Ubicación
    Plus Ultra
    Agradecimientos

    Southfest Buenos Aires 2005 (09.04.2005)

    Tracklist
    SouthFest 2005

    Hernan Cattaneo


    Sasha & Digweed.



    A ver si podemos armar un tracklist con los temas q pasaron estos 3 SEÑORES. Vayan tirando temas, con el set perteneciente, cada tanto voy a ir actualizando todo en este primer mensaje

  2. #2
    Fecha de ingreso
    16 octubre 2004
    Ubicación
    buenos aires
    Edad
    31
    Agradecimientos

    Re: Tracklist SouthFest

    Yo se q S+D tocaron Adagio For Strings, en una version REEEEEEEE ABAJO... y al ratito closer to me :P jajaja

    despues no se no conosco nada mas :(
    gªs†y²
    NC Desvirtuation Team!
    [FONT="Times New Roman"] maniha squad [/FONT]

  3. #3
    Fecha de ingreso
    31 agosto 2004
    Ubicación
    Far From Earth
    Edad
    32
    Agradecimientos

    Re: Tracklist SouthFest

    el anteultimo de S&D: The killers - Mr Brightside (thin white duke remix)
    Don`t let GLAMouR die! Dark enough??

  4. #4
    Fecha de ingreso
    19 marzo 2005
    Ubicación
    ciudad madero
    Agradecimientos

    Re: Tracklist SouthFest

    cattaneo toco DARKNESS!!!!! muy arriba!!!

    toco tmb strange items, cattaneo...
    Pro gre sive

  5. #5
    Fecha de ingreso
    04 agosto 2004
    Ubicación
    Belgrano
    Edad
    35
    Agradecimientos

    Re: Tracklist SouthFest

    S&D tocaron
    Moby - Lift me up nose de quien es el remix
    Gewn Stefani - What your are waiting tampco se q remix... pero lo usaron mas como base...
    [FONT=Arial Black]::: contact:::
    [/FONT]
    [email protected]

  6. #6
    Fecha de ingreso
    23 diciembre 2004
    Ubicación
    Buenos Aires
    Agradecimientos

    Re: Tracklist SouthFest

    yo no fui...pero Mylo tiene un rmx de Lift me up.....podria ser ese
    checkealo

  7. #7
    Fecha de ingreso
    25 marzo 2005
    Ubicación
    Palermo
    Edad
    29
    Agradecimientos

    Re: Tracklist SouthFest

    Cattaneo paso Mo Move, creo que fue la ultima cancion de su set

  8. #8
    Fecha de ingreso
    20 octubre 2004
    Ubicación
    Capital Federal
    Edad
    48
    Agradecimientos

    Re: Tracklist SouthFest

    El set de Cattaneo empezó con Björk - All Is Full Of Love (Om Remix)
    30/12/2004 - No olvidarse, nos pudo tocar...

  9. #9
    Fecha de ingreso
    03 febrero 2005
    Ubicación
    buenos aires
    Agradecimientos

    Re: Tracklist SouthFest

    Strange Items...me voy a poner a llorar mucha nostalgia
    dark enough?


    DEPARTMENT OF DARKNESS

  10. #10
    Fecha de ingreso
    17 octubre 2004
    Ubicación
    nomerompaslasbolaskero
    Agradecimientos

    Re: Tracklist SouthFest

    Sasha & Digweed pasaron una rara version de "Mandy - No stopping", era la misma melodia, pero sin voces...
    Última edición por Perver; lunes 11 abril de 2005 a las 21:07

  11. #11
    Fecha de ingreso
    12 diciembre 2004
    Ubicación
    ::Clubbing::
    Edad
    28
    Agradecimientos

    Re: Tracklist SouthFest

    S&D cerraron con chemical brothers - believe

  12. #12
    Fecha de ingreso
    15 octubre 2004
    Ubicación
    Paris
    Agradecimientos

    Re: Tracklist SouthFest

    Cita Iniciado por ArminvanB
    Cattaneo paso Mo Move, creo que fue la ultima cancion de su set
    Puso su edit, tema con el que cierra también el Renaissance 2...

  13. #13
    Fecha de ingreso
    08 noviembre 2004
    Ubicación
    devoto
    Edad
    37
    Agradecimientos

    Re: Tracklist SouthFest

    CATTANEO PUSO UNA VERSION PROGRESSIVE DE FEAR! (PAUL OAKENFOLD)....que me puso la piel de gallina!!!!
    [FONT=Arial Black]
    OAKENFOLD = DIOS
    [/FONT]

    [FONT=Arial Black]CATTANEO = JESUS[/FONT]
    ... M A R I A N O ...

    06.08.06

  14. #14
    Fecha de ingreso
    15 noviembre 2004
    Ubicación
    London
    Edad
    32
    Agradecimientos

    Re: Tracklist SouthFest

    entre varios, en el foro de de hernan intentamos armar el tracklist y despues spiker armo el cue....
    aca va:
    Código:
    TITLE "Live Southfest Buenos Aires - April 09, 2005 [DJ_Spiker]" 
    PERFORMER "Hernan Cattaneo" 
    FILE "Hernan Cattaneo - Live Southfest Buenos Aires - April 09, 2005 [DJ_Spiker].mp3" MP3 
    TRACK 01 AUDIO 
    TITLE "All Is Full Of Love [Osamu M Submerge Mix]" 
    PERFORMER "Bjork" 
    INDEX 01 00:00:00 
    TRACK 02 AUDIO 
    INDEX 01 05:15:25 
    TRACK 03 AUDIO 
    INDEX 01 13:05:00 
    TRACK 04 AUDIO 
    TITLE "House Trick [Paolo Mojo mix]" 
    PERFORMER "Alex Neri" 
    INDEX 01 15:06:59 
    TRACK 05 AUDIO 
    TITLE "Strange Items [Hernan Cattaneo & John Tonks rmx]" 
    PERFORMER "Jeff Bennett" 
    INDEX 01 22:08:59 
    TRACK 06 AUDIO 
    TITLE "Fantastique" 
    PERFORMER "Maxine Vegas & Deep Mariano" 
    INDEX 01 28:53:00 
    TRACK 07 AUDIO 
    INDEX 01 34:41:59 
    TRACK 08 AUDIO 
    INDEX 01 41:49:25 
    TRACK 09 AUDIO 
    TITLE "Lights Out [Lemon 8 'Lights On' mix]" 
    PERFORMER "North Atlantic" 
    INDEX 01 44:17:55 
    TRACK 10 AUDIO 
    INDEX 01 51:47:00 
    TRACK 11 AUDIO 
    TITLE "Fear [Unbroken Edit]" 
    PERFORMER "WOW vs Ian Brown" 
    INDEX 01 57:47:50 
    TRACK 12 AUDIO 
    INDEX 01 62:25:40 
    TITLE "Break My Mind [Cattaneo + Tonks remix]" 
    PERFORMER "Oliverio & MOS" 
    TRACK 13 AUDIO 
    INDEX 01 70:07:30 
    TRACK 14 AUDIO 
    TITLE "Salvation On Slavery Sins [Nick Muir Mix]" 
    PERFORMER "Pole Folder" 
    INDEX 01 74:41:25 
    TRACK 15 AUDIO 
    TITLE "Raumwelt Signal [Catttaneo + Tonks rmx]" 
    PERFORMER "Atmos" 
    INDEX 01 81:18:55 
    TRACK 16 AUDIO 
    TITLE "Mo Move [Hernan Cattaneo Re-Edit]" 
    PERFORMER "Underworld" 
    INDEX 01 89:31:55
    terrible dupla hernan & tonks produciendo y remixando
    y el tema de maxine & mariano no tiene nombreeee.
    si alguien sabe el nombre del 2do tema se lo agradecere eternamente.
    Última edición por ig; martes 12 abril de 2005 a las 23:14
    progressive house

  15. #15
    Fecha de ingreso
    09 enero 2005
    Ubicación
    Belgrano
    Edad
    29
    Agradecimientos

    Re: Tracklist SouthFest

    Cita Iniciado por Jetlag
    yo no fui...pero Mylo tiene un rmx de Lift me up.....podria ser ese
    checkealo
    SII ERA EL DE MYLO....
    [FONT=Comic Sans MS]*... listen to the colour of your dreams - John Lennon

    * ... cellophane flowers of yellow and green,
    towering over your head... - Lennon/Mc Cartney

    * ...The newspaper said "say what're you doing in bed?"
    I said "we only try to get us some peace"... - Lennon/Mc Cartney[/FONT]

  16. #16
    Fecha de ingreso
    15 noviembre 2004
    Ubicación
    London
    Edad
    32
    Agradecimientos

    Re: Tracklist SouthFest

    gente... sasha & digweed pusieron todas "versiones raras" como dicen uds.. o remixes unknown xq los edito sasha live con el ableton.. y eso es algo q creo q nadie aprecio ni valoro...
    progressive house

  17. #17
    Fecha de ingreso
    24 agosto 2004
    Ubicación
    Pilar
    Agradecimientos

    Re: Tracklist SouthFest

    Hernan Cattaneo @ Southfest

    1- Bjork - All Is Full Of Love (Osamu M Mix)
    2- ID
    3- Tone Depth Feat Matt Shapiro - To The Moon
    4- Alex Neri - House Track (Paolo Mojo)
    5- Jeff Bennet - Strange Items (Hernan Cattaneo & Tonks Mix)
    6- Maxine Vegas & Deepmariano - Fantastique
    7- Siberian Son - Ladybird
    8- Oliverio & MOS - Break My Mind (Hernan Cattaneo & Tonks Remix)
    9- North Atlantic - Lights Out (Lemon 8 Mix)
    10- Way Out West Vs. Ian Brown - Fear (Unbroken Edit)
    11- ID
    12- Rachael Stevens - Breath In Breath Out (Tom Neville Mix)
    13- Pole Folder - Salvation On Slavery Sins (Nick Muir Mix)
    14- Raumwelt - Signal (Hernan Cattaneo & Tonks Mix)
    15- Underworld - Mo Move (Hernan Cattaneo Re-Edit)


    PD: El tema con el que cerraron S & D no es Belive de los Chemical Brothers...
    El tema con el q cerraron es > The Killers - Mr. Brightside (Thin White Duke Remix)

    Saludos y si alguien tiene los Tracks 2 y 11 del set de Hernan postee !!!

  18. #18
    Fecha de ingreso
    15 noviembre 2004
    Ubicación
    London
    Edad
    32
    Agradecimientos

    Re: Tracklist SouthFest

    de donde sacaste ese tracklist fede?
    faltan temas... y esta mal ordenado.
    progressive house

  19. #19
    Fecha de ingreso
    25 diciembre 2004
    Ubicación
    BsAs
    Agradecimientos

    Re: Tracklist SouthFest

    Cita Iniciado por bsp
    de donde sacaste ese tracklist fede?
    faltan temas... y esta mal ordenado.
    esa es la version vieja.

    esta es la nueva.

    TITLE "Live Southfest Buenos Aires - April 09, 2005 [DJ_Spiker]"
    PERFORMER "Hernan Cattaneo"
    FILE "Hernan Cattaneo - Live Southfest Buenos Aires - April 09, 2005 [DJ_Spiker].mp3" MP3
    TRACK 01 AUDIO
    TITLE "All Is Full Of Love [Osamu M Submerge Mix]"
    PERFORMER "Bjork"
    INDEX 01 00:00:00
    TRACK 02 AUDIO
    INDEX 01 05:15:25
    TRACK 03 AUDIO
    TITLE "To The Moon"
    PERFORMER "Tonedepth Feat. Matt Shapiro"
    INDEX 01 13:05:00
    TRACK 04 AUDIO
    TITLE "House Trick [Paolo Mojo mix]"
    PERFORMER "Alex Neri"
    INDEX 01 15:06:59
    TRACK 05 AUDIO
    TITLE "Strange Items [Hernan Cattaneo & John Tonks rmx]"
    PERFORMER "Jeff Bennett"
    INDEX 01 22:08:59
    TRACK 06 AUDIO
    TITLE "Fantastique"
    PERFORMER "Maxine Vegas & Deep Mariano"
    INDEX 01 28:53:00
    TRACK 07 AUDIO
    INDEX 01 34:41:59
    TRACK 08 AUDIO
    INDEX 01 41:49:25
    TRACK 09 AUDIO
    TITLE "Lights Out [Lemon 8 'Lights On' mix]"
    PERFORMER "North Atlantic"
    INDEX 01 44:17:55
    TRACK 10 AUDIO
    INDEX 01 51:47:00
    TRACK 11 AUDIO
    TITLE "Fear [Unbroken Edit]"
    PERFORMER "WOW vs Ian Brown"
    INDEX 01 57:47:50
    TRACK 12 AUDIO
    INDEX 01 62:25:40
    TITLE "Break My Mind [Cattaneo + Tonks remix]"
    PERFORMER "Oliverio & MOS"
    TRACK 13 AUDIO
    INDEX 01 70:07:30
    TITLE "Breath In Breath Out (Tom Neville Remix)"
    PERFORMER "Rachael Stevens"
    TRACK 14 AUDIO
    TITLE "Salvation On Slavery Sins [Nick Muir Mix]"
    PERFORMER "Pole Folder"
    INDEX 01 74:41:25
    TRACK 15 AUDIO
    TITLE "Raumwelt Signal [Catttaneo + Tonks rmx]"
    PERFORMER "Atmos"
    INDEX 01 81:18:55
    TRACK 16 AUDIO
    TITLE "Mo Move [Hernan Cattaneo Re-Edit]"
    PERFORMER "Underworld"
    INDEX 01 89:31:55
    [font=Arial][/font]

  20. #20
    Fecha de ingreso
    16 agosto 2004
    Ubicación
    homeless
    Edad
    34
    Agradecimientos

    Re: Tracklist SouthFest

    el anteultimo tema de S & D fue The killers - Mr Brightside pero una version ESPECTACULAR, uno de los mejores de toda la noche. espero encontrarlo!!
    BANG!

    FUCKOLOG!

Página 1 de 2 1 2 ÚltimoÚltimo

Etiquetas para este tema

Información de tema

Usuarios viendo este tema

Actualmente hay 1 usuarios viendo este tema. (0 miembros y 1 visitantes)

Temas similares

  1. Progressive House Hernan Cattaneo - Live @ Southfest Buenos Aires (09.04.2005)
    Por PoL-K en el foro SETs
    Respuestas: 19
    Último mensaje: domingo 06 julio de 2014, 21:15
  2. Pedido - Mirror Hernan Cattaneo - Live @ Creamfields Buenos Aires 2005 (12.11.2005)
    Por Maartinnn en el foro Seccion para Pedidos
    Respuestas: 5
    Último mensaje: domingo 14 octubre de 2012, 21:00
  3. Pedido - Mirror Sasha & Digweed - Live from Southfest 2005, Buenos Aires Pt 2
    Por arenagab en el foro Seccion para Pedidos
    Respuestas: 3
    Último mensaje: sábado 16 febrero de 2008, 00:39
  4. Respuestas: 31
    Último mensaje: lunes 17 octubre de 2005, 02:19

Permisos de publicación

  • No puedes crear nuevos temas
  • No puedes responder temas
  • No puedes subir archivos adjuntos
  • No puedes editar tus mensajes
  •