archivo cue de asot 240-245
Resultados 1 al 2 de 2
  1. #1
    Fecha de ingreso
    19 noviembre 2005
    Ubicación
    en un vynilo
    Edad
    34
    Agradecimientos

    archivo cue de asot 240-245

    bueno gente aca les dejo los cue de los asot 240 al 245
    en breve posteo 246 y247
    salu2

    PERFORMER "Armin van Buuren"
    TITLE "A State of Trance (240)(16-03-2006)"
    FILE "01_armin_van_buuren_-_a_state_of_trance_240_(di.fm)_03-16-2006-tt.mp3" MP3
    TRACK 01 AUDIO
    PERFORMER "Signalrunners presents Syndica"
    TITLE "Aria Epica"
    INDEX 01 00:00:00
    TRACK 02 AUDIO
    PERFORMER "Mads Arp featuring Julie Harrington"
    TITLE "Slow it down (Luke Chable Remix)"
    INDEX 01 09:03:40
    TRACK 03 AUDIO
    PERFORMER "Selu Vibra"
    TITLE "Divine (Funabashi Remix)"
    INDEX 01 16:27:50
    TRACK 04 AUDIO
    PERFORMER "Mike Foyle"
    TITLE "Shipwrecked (Mike Foyle vs. John O'Callaghan Club Mix)"
    INDEX 01 21:52:45
    TRACK 05 AUDIO
    PERFORMER "Shawn Mitiska vs. Jose Amnesia"
    TITLE "My all (Flash Brothers Remix)"
    INDEX 01 27:32:45
    TRACK 06 AUDIO
    PERFORMER "Above and Beyond"
    TITLE "Can't sleep (Future Favorite)"
    INDEX 01 33:53:25
    TRACK 07 AUDIO
    PERFORMER "Bobina"
    TITLE "Trance for cowboys"
    INDEX 01 40:32:20
    TRACK 08 AUDIO
    PERFORMER "Thomas Datt vs. Robert Nickson"
    TITLE "Tabla Mizma (Remix)"
    INDEX 01 47:08:37
    TRACK 09 AUDIO
    PERFORMER "Lost Tribe"
    TITLE "Angel (Adam White Dub)"
    INDEX 01 53:24:43
    TRACK 10 AUDIO
    PERFORMER "Fable"
    TITLE "Nightshift"
    INDEX 01 61:05:06
    TRACK 11 AUDIO
    PERFORMER ""
    TITLE "ID (#15. Armin van Buuren - ASOT237)(23-02-2006)"
    INDEX 01 68:10:60
    TRACK 12 AUDIO
    PERFORMER "Gareth Emery and Jon O'Bir"
    TITLE "No way back"
    INDEX 01 73:28:40
    TRACK 13 AUDIO
    PERFORMER "Timo Maas"
    TITLE "Pictures (Paul van Dyk Remix)"
    INDEX 01 80:44:10
    TRACK 14 AUDIO
    PERFORMER "Kyau vs. Albert"
    TITLE "Walk down"
    INDEX 01 87:32:38
    TRACK 15 AUDIO
    PERFORMER "Mannix vs. Kaymak"
    TITLE "World gone mad (Club Mix)(Tune of The Week)"
    INDEX 01 92:55:55
    TRACK 16 AUDIO
    PERFORMER "Signum"
    TITLE "Harmonic"
    INDEX 01 97:24:03
    TRACK 17 AUDIO
    PERFORMER "M.I.K.E."
    TITLE "Voices from The Inside (Progressiva Remix)"
    INDEX 01 103:00:40
    TRACK 18 AUDIO
    PERFORMER "Re:Locate"
    TITLE "Rogue"
    INDEX 01 109:05:04
    TRACK 19 AUDIO
    PERFORMER "Armin van Buuren"
    TITLE "Sail (Original Mix)"
    INDEX 01 113:59:37

    PERFORMER "Armin van Buuren"
    TITLE "A State of Trance (241)(23-03-2006)"
    FILE "01_armin_van_buuren_-_a_state_of_trance_241_(di.fm)_03-23-2006-tt.mp3" MP3
    TRACK 01 AUDIO
    PERFORMER "David West"
    TITLE "Suffering Island"
    INDEX 01 00:00:00
    TRACK 02 AUDIO
    PERFORMER "Joonas Hahmo"
    TITLE "Fusion"
    INDEX 01 07:58:42
    TRACK 03 AUDIO
    PERFORMER "Karen Overton"
    TITLE "Your loving arms (Club Mix)"
    INDEX 01 14:46:25
    TRACK 04 AUDIO
    PERFORMER "Basic Perspective"
    TITLE "Small step on The Other Side (Elevation Remix)(Tune of The Week)"
    INDEX 01 22:15:68
    TRACK 05 AUDIO
    PERFORMER "Filo and Peri featuring Fisher"
    TITLE "Ordinary moment"
    INDEX 01 29:32:45
    TRACK 06 AUDIO
    PERFORMER "Paul Oakenfold"
    TITLE "Save The Last trance for me"
    INDEX 01 36:01:62
    TRACK 07 AUDIO
    PERFORMER "Mr. Sam featuring Kirsty Hawkshaw"
    TITLE "Insight (Aira Force Remix)"
    INDEX 01 41:46:01
    TRACK 08 AUDIO
    PERFORMER "Re:Locate featuring Menno de Jong"
    TITLE "Spirit"
    INDEX 01 48:27:40
    TRACK 09 AUDIO
    PERFORMER "Mannix vs. Kaymak"
    TITLE "World gone mad (Club Mix)"
    INDEX 01 53:37:09
    TRACK 10 AUDIO
    PERFORMER "Kuffdam and Plant"
    TITLE "Dreammakers (Shogs 2 Faces Remix)"
    INDEX 01 58:57:38
    TRACK 11 AUDIO
    PERFORMER "Solarscape"
    TITLE "Surround"
    INDEX 01 66:15:64
    TRACK 12 AUDIO
    PERFORMER "Stoneface and Terminal"
    TITLE "Venus"
    INDEX 01 72:45:38
    TRACK 13 AUDIO
    PERFORMER "Re:Locate"
    TITLE "Rogue (Future Favorite)"
    INDEX 01 78:33:01
    TRACK 14 AUDIO
    PERFORMER "Midway"
    TITLE "Cobra (Outback Remix)"
    INDEX 01 83:48:74
    TRACK 15 AUDIO
    PERFORMER "Thomas Datt"
    TITLE "Evaporate (Stoneface and Terminal Remix)"
    INDEX 01 91:09:76
    TRACK 16 AUDIO
    PERFORMER "Lost Tribe"
    TITLE "Angel (Adam White Dub)"
    INDEX 01 97:14:55
    TRACK 17 AUDIO
    PERFORMER "Selu Vibra"
    TITLE "Divine (Original Mix)"
    INDEX 01 105:16:32
    TRACK 18 AUDIO
    PERFORMER "Hiroyuki Oda"
    TITLE "Transmigration"
    INDEX 01 112:08:35

    PERFORMER "Armin van Buuren"
    TITLE "A State of Trance (242)(30-03-2006)"
    FILE "01_armin_van_buuren_-_a_state_of_trance_242_(di.fm)_03-30-2006-tt.mp3" MP3
    TRACK 01 AUDIO
    PERFORMER "Gabriel and Dresden featuring Scarlett Etienne"
    TITLE "Eleven"
    INDEX 01 00:00:00
    TRACK 02 AUDIO
    PERFORMER "Sasha"
    TITLE "Belfunk (Matthew Dekay Remix)"
    INDEX 01 04:37:33
    TRACK 03 AUDIO
    PERFORMER "David West"
    TITLE "Suffering Island"
    INDEX 01 11:36:10
    TRACK 04 AUDIO
    PERFORMER "Above and Beyond"
    TITLE "World on fire"
    INDEX 01 18:23:69
    TRACK 05 AUDIO
    PERFORMER "Sunlounger"
    TITLE "White sand"
    INDEX 01 23:56:21
    TRACK 06 AUDIO
    PERFORMER "Kenneth Thomas featuring Colleen Riley"
    TITLE "Ghost in The Machine (Elevation Remix)"
    INDEX 01 29:46:71
    TRACK 07 AUDIO
    PERFORMER "Sassot vs. Karen Overton"
    TITLE "Where it all begun vs. Your loving arms (Original Mix vs. Accapella)"
    INDEX 01 36:13:20
    TRACK 08 AUDIO
    PERFORMER "Tom Cloud"
    TITLE "Told you so"
    INDEX 01 43:34:03
    TRACK 09 AUDIO
    PERFORMER "Dan Stone"
    TITLE "Made in Bahrain (Tune of The Week)"
    INDEX 01 51:59:61
    TRACK 10 AUDIO
    PERFORMER "Six Senses presents Xposed"
    TITLE "From The Heart"
    INDEX 01 58:13:31
    TRACK 11 AUDIO
    PERFORMER "Selu Vibra"
    TITLE "Divine (Original Mix)(Future Favorite)"
    INDEX 01 62:43:62
    TRACK 12 AUDIO
    PERFORMER "Re:Locate featuring Menno de Jong"
    TITLE "Spirit"
    INDEX 01 69:56:63
    TRACK 13 AUDIO
    PERFORMER "Kyau vs. Albert"
    TITLE "Kiksu"
    INDEX 01 75:29:60
    TRACK 14 AUDIO
    PERFORMER "Mr. Sam featuring Kirsty Hawkshaw"
    TITLE "Insight (Aira Force Remix)"
    INDEX 01 80:26:31
    TRACK 15 AUDIO
    PERFORMER "Paul Oakenfold"
    TITLE "Amsterdam"
    INDEX 01 85:37:12
    TRACK 16 AUDIO
    PERFORMER "Re:Locate"
    TITLE "Rogue"
    INDEX 01 89:01:76
    TRACK 17 AUDIO
    PERFORMER "Gareth Emery and Jon O'Bir"
    TITLE "No way back"
    INDEX 01 94:24:33
    TRACK 18 AUDIO
    PERFORMER "Adam Nickey"
    TITLE "Perfect destiny"
    INDEX 01 101:25:03
    TRACK 19 AUDIO
    PERFORMER "Mark Otten vs. Carrie Skipper"
    TITLE "So Serene vs. Time goes by (Menno de Jong Mix vs. Accapella)"
    INDEX 01 108:55:33
    TRACK 20 AUDIO
    PERFORMER "EnMass"
    TITLE "C.Q. (Seek You)(Randy Boyer and Kristina Sky Remix)"
    INDEX 01 114:10:67


    PERFORMER "Armin van Buuren"
    TITLE "A State of Trance (243)(06-04-2006)"
    FILE "01_armin_van_buuren_-_a_state_of_trance_243_(di.fm)_04-06-2006-tt.mp3" MP3
    TRACK 01 AUDIO
    PERFORMER "Seroya"
    TITLE "So beautiful (Noel Sanger Remix)"
    INDEX 01 00:00:00
    TRACK 02 AUDIO
    PERFORMER "Algarve"
    TITLE "The Longest Journey"
    INDEX 01 09:20:25
    TRACK 03 AUDIO
    PERFORMER "Tom Cloud"
    TITLE "Told you so (Future Favorite)"
    INDEX 01 15:50:18
    TRACK 04 AUDIO
    PERFORMER "Ahead"
    TITLE "3gether"
    INDEX 01 23:32:69
    TRACK 05 AUDIO
    PERFORMER "Joonas Hahmo"
    TITLE "Fusion"
    INDEX 01 30:13:02
    TRACK 06 AUDIO
    PERFORMER "Midway"
    TITLE "Cobra"
    INDEX 01 37:21:47
    TRACK 07 AUDIO
    PERFORMER "Danjo and Styles vs. Governor"
    TITLE "Blue woods (Original Mix)"
    INDEX 01 44:22:60
    TRACK 08 AUDIO
    PERFORMER "Giuseppe Ottaviani"
    TITLE "Through your eyes"
    INDEX 01 51:42:62
    TRACK 09 AUDIO
    PERFORMER "Dan Stone"
    TITLE "Made in Bahrain (Orkan Remix)"
    INDEX 01 58:04:77
    TRACK 10 AUDIO
    PERFORMER "Nitrous Oxide"
    TITLE "North Pole"
    INDEX 01 65:26:48
    TRACK 11 AUDIO
    PERFORMER "Gabriel and Dresden"
    TITLE "Sydney"
    INDEX 01 73:23:22
    TRACK 12 AUDIO
    PERFORMER "Filo and Peri featuring Fisher"
    TITLE "Ordinary moment"
    INDEX 01 77:28:48
    TRACK 13 AUDIO
    PERFORMER "Buro"
    TITLE "Pasar (Aerodrome Remix)(Tune of The Week)"
    INDEX 01 83:33:13
    TRACK 14 AUDIO
    PERFORMER "Factoria"
    TITLE "Excalibur"
    INDEX 01 91:55:73
    TRACK 15 AUDIO
    PERFORMER "Thomas Datt"
    TITLE "Evaporate (Stoneface and Terminal Remix)"
    INDEX 01 98:41:06
    TRACK 16 AUDIO
    PERFORMER "Re:Locate"
    TITLE "Rogue"
    INDEX 01 104:30:21
    TRACK 17 AUDIO
    PERFORMER ""
    TITLE "Leave behind"
    INDEX 01 109:23:40
    TRACK 18 AUDIO
    PERFORMER "Selu Vibra"
    TITLE "Divine (Original Mix)"
    INDEX 01 116:22:45


    PERFORMER "Armin van Buuren"
    TITLE "A State of Trance (244)(13-04-2006)"
    FILE "01_armin_van_buuren_-_a_state_of_trance_244_(di.fm)_04-13-2006-tt.mp3" MP3
    TRACK 01 AUDIO
    PERFORMER "Duderstadt"
    TITLE "Muhanjala (Original Mix)"
    INDEX 01 00:00:00
    TRACK 02 AUDIO
    PERFORMER "A Boy Called Joni"
    TITLE "Green astronauts"
    INDEX 01 07:53:72
    TRACK 03 AUDIO
    PERFORMER "Alex Monakhov"
    TITLE "Roundabout"
    INDEX 01 13:12:45
    TRACK 04 AUDIO
    PERFORMER "Sassot vs. Karen Overton"
    TITLE "Where it all begun vs. Your loving arms (Original Mix vs. Accapella)"
    INDEX 01 18:30:22
    TRACK 05 AUDIO
    PERFORMER "Peter Dafnous and Tania Mann presents Apollonia"
    TITLE "Remote kontrol"
    INDEX 01 25:17:13
    TRACK 06 AUDIO
    PERFORMER "Mr. Sam featuring Kirsty Hawkshaw"
    TITLE "Insight (Aira Force Remix)"
    INDEX 01 31:56:38
    TRACK 07 AUDIO
    PERFORMER "Aira Force"
    TITLE "No one knows"
    INDEX 01 37:58:17
    TRACK 08 AUDIO
    PERFORMER "Giuseppe Ottaviani"
    TITLE "Through your eyes (Future Favorite)"
    INDEX 01 43:18:20
    TRACK 09 AUDIO
    PERFORMER "John O'Callaghan and Kearney"
    TITLE "Exactly"
    INDEX 01 50:05:27
    TRACK 10 AUDIO
    PERFORMER "Arksun"
    TITLE "Arisen (Tune of The Week)"
    INDEX 01 57:01:05
    TRACK 11 AUDIO
    PERFORMER "Terry Bones"
    TITLE "Forbidden way (George Hales Remix)"
    INDEX 01 65:23:43
    TRACK 12 AUDIO
    PERFORMER "Midway"
    TITLE "Cobra"
    INDEX 01 71:01:09
    TRACK 13 AUDIO
    PERFORMER "Preach"
    TITLE "Dark shadow"
    INDEX 01 77:36:00
    TRACK 14 AUDIO
    PERFORMER "Danjo and Styles vs. Governor"
    TITLE "Blue woods (Original Mix)"
    INDEX 01 82:43:62
    TRACK 15 AUDIO
    PERFORMER "Stoneface and Terminal"
    TITLE "Summerscape"
    INDEX 01 90:40:22
    TRACK 16 AUDIO
    PERFORMER "Assure"
    TITLE "Enemy territory"
    INDEX 01 97:09:46
    TRACK 17 AUDIO
    PERFORMER "Thomas Datt vs. Robert Nickson"
    TITLE "Tabla Mizma (Original Mix)"
    INDEX 01 102:02:08
    TRACK 18 AUDIO
    PERFORMER "EnMass"
    TITLE "C.Q. (Seek You)(Randy Boyer and Kristina Sky Remix)"
    INDEX 01 108:05:54
    TRACK 19 AUDIO
    PERFORMER "Gabriel and Dresden"
    TITLE "Sydney"
    INDEX 01 113:50:04

    PERFORMER "Armin van Buuren"
    TITLE "A State of Trance (245)(20-04-2006)"
    FILE "01_armin_van_buuren_-_a_state_of_trance_245_(di.fm)_04-20-2006-tt.mp3" MP3
    TRACK 01 AUDIO
    PERFORMER "Gabriel and Dresden featuring Molly Bancroft"
    TITLE "Let go (Original Mix)"
    INDEX 01 00:00:00
    TRACK 02 AUDIO
    PERFORMER "Joonas Hahmo"
    TITLE "Fusion"
    INDEX 01 06:34:54
    TRACK 03 AUDIO
    PERFORMER "Dousk"
    TITLE "Chrysalis (Revisited Mix)"
    INDEX 01 12:57:53
    TRACK 04 AUDIO
    PERFORMER "Temple 1"
    TITLE "Silent nature"
    INDEX 01 19:47:05
    TRACK 05 AUDIO
    PERFORMER "Fred Baker"
    TITLE "Forever friends (Sensation White 2006 Anthem)"
    INDEX 01 23:39:10
    TRACK 06 AUDIO
    PERFORMER "Mark Norman"
    TITLE "Brasilia (Antiphus Remix)"
    INDEX 01 32:01:28
    TRACK 07 AUDIO
    PERFORMER "Arksun"
    TITLE "Arisen (Future Favorite)"
    INDEX 01 38:14:10
    TRACK 08 AUDIO
    PERFORMER "Ronald van Gelderen"
    TITLE "This way (Rank 1 Remix)(Tune of The Week)"
    INDEX 01 46:17:77
    TRACK 09 AUDIO
    PERFORMER "Buro presents Rob B."
    TITLE "Pasar (Aerodrome Remix)"
    INDEX 01 52:46:30
    TRACK 10 AUDIO
    PERFORMER "Governor presents Orjan"
    TITLE "Arctic globe"
    INDEX 01 60:18:34
    TRACK 11 AUDIO
    PERFORMER "Danjo and Styles"
    TITLE "What lies ahead"
    INDEX 01 66:56:11
    TRACK 12 AUDIO
    PERFORMER "Duderstadt"
    TITLE "Muhanjala (Original Mix)"
    INDEX 01 73:44:13
    TRACK 13 AUDIO
    PERFORMER "Giuseppe Ottaviani and Marc van Linden"
    TITLE "Until Monday (John Askew Remix)"
    INDEX 01 80:18:17
    TRACK 14 AUDIO
    PERFORMER "Thomas Datt"
    TITLE "Evaporate (Stoneface and Terminal Remix)"
    INDEX 01 88:02:36
    TRACK 15 AUDIO
    PERFORMER "S.O. Project"
    TITLE "Direct Dizko (Sander Van Doorn Remix)"
    INDEX 01 93:47:25
    TRACK 16 AUDIO
    PERFORMER "Hidden Logic presents Luminary"
    TITLE "Wasting (Ronski Speed Remix)"
    INDEX 01 101:17:52
    TRACK 17 AUDIO
    PERFORMER "Sean Tyas"
    TITLE "Pacifier (Original Mix)"
    INDEX 01 106:48:29
    TRACK 18 AUDIO
    PERFORMER "Nitrous Oxide"
    TITLE "North Pole"
    INDEX 01 113:08:26
    Activa vs. Chris & Matt Kidd “U.R.” (Stoneface & Terminal mix) (Discover)
    Jochen Miller - Face Value (Extended)[High Contrast]
    Eddie Sender - Sandwalker (Original Mix)[Monster Digital]
    Bryan Kearney - More To Life (Dave Schiemann Remix)[Discover White Label]
    Comunidad Canabica Argentina
    Discover Records Addict

  2. #2
    Fecha de ingreso
    07 septiembre 2005
    Ubicación
    Córdoba Capital
    Edad
    32
    Agradecimientos

    Re: archivo cue de asot 240-245

    Sabes que viene muy interesante... definitivamente muchas gracias

Etiquetas para este tema

Información de tema

Usuarios viendo este tema

Actualmente hay 1 usuarios viendo este tema. (0 miembros y 1 visitantes)

Temas similares

  1. M3U, archivo de lista.
    Por facundoh en el foro General
    Respuestas: 1
    Último mensaje: lunes 25 agosto de 2008, 12:27
  2. archivo.daa
    Por Eze Le Vache en el foro General
    Respuestas: 2
    Último mensaje: jueves 01 junio de 2006, 16:02
  3. Respuestas: 0
    Último mensaje: martes 04 abril de 2006, 23:20

Permisos de publicación

  • No puedes crear nuevos temas
  • No puedes responder temas
  • No puedes subir archivos adjuntos
  • No puedes editar tus mensajes
  •