Luke Fair live @ Kiss FM100 (02/20/05)

-- Publicidad --

Aftercluv 11

Resultados 1 al 7 de 7
  1. #1
    Fecha de ingreso
    09 abril 2005
    Ubicación
    Capital Federal
    Edad
    28
    Agradecimientos

    Guiño Luke Fair live @ Kiss FM100 (02/20/05)

    esta muy bueno

    http://www.dirtygrooves.com/Mixes/Jo...-Luke.Fair.mp3

    cuando consiga el tracklist lo posteo si alguno me ayuda mejor

  2. #2
    Fecha de ingreso
    23 octubre 2005
    Ubicación
    en castelar
    Edad
    31
    Agradecimientos

    Re: Luke Fair live @ Kiss FM100 (02/20/05)

    aqui tienes:
    TITLE "Kiss 100 FM (2005-02-20)"
    PERFORMER "Luke Fair"
    FILE "Luke Fair Kiss100 2005-02-20.mp3" MP3
    TRACK 01 AUDIO
    TITLE "Diego Montinaro - Retro Dynamix [Elettrica]"
    INDEX 01 00:00:00
    TRACK 02 AUDIO
    TITLE "Miguel Migs - Dont Stand There [NRK Sound Division]"
    INDEX 01 05:34:00
    TRACK 03 AUDIO
    TITLE "Cpen - Change [Late Night Essentials US]"
    INDEX 01 10:18:00
    TRACK 04 AUDIO
    TITLE "Scape feat. D-Empress - Be My Friend (Michael Gray Mix /Luke Fairs Additional Dub Re-Edit) [White]"
    INDEX 01 16:43:00
    TRACK 05 AUDIO
    TITLE "Alain Delon - Tequila Sunrise [White]"
    INDEX 01 22:22:30
    TRACK 06 AUDIO
    TITLE "Full Intention - Keeps Me Hangin On [Dtention]"
    INDEX 01 30:55:50
    TRACK 07 AUDIO
    TITLE "Arcade Mode - Aint no"
    INDEX 01 35:55:30
    TRACK 08 AUDIO
    TITLE "Sebago - Hands On Me (Instrumental) [Hot Banana] "
    INDEX 01 40:51:30
    TRACK 09 AUDIO
    TITLE "Jevne - Sonic Voodoo (Alan Barratt Remix) [Onethirty Records]"
    INDEX 01 47:12:30
    TRACK 10 AUDIO
    TITLE "Lifelike - Running Out (Sebastien Leger 303ing Mix) [Work It Baby]"
    INDEX 01 52:24:00

  3. #3
    Fecha de ingreso
    27 diciembre 2005
    Ubicación
    Buenos Aires
    Edad
    30
    Agradecimientos

    Re: Luke Fair live @ Kiss FM100 (02/20/05)

    me parece que esta mal el link :S

  4. #4
    Fecha de ingreso
    23 octubre 2005
    Ubicación
    en castelar
    Edad
    31
    Agradecimientos

    Re: Luke Fair live @ Kiss FM100 (02/20/05)

    proba con estos http://www.nightclubber.com.ar/foro/...ight=luke+fair sino despues te lo subo

  5. #5
    Fecha de ingreso
    10 agosto 2005
    Ubicación
    hurlingham city
    Edad
    33
    Agradecimientos

    Re: Luke Fair live @ Kiss FM100 (02/20/05)

    me pasa lo mismo ke a segitoes, puede ser k este mal el link ?

  6. #6
    Fecha de ingreso
    27 diciembre 2005
    Ubicación
    Buenos Aires
    Edad
    30
    Agradecimientos

    Re: Luke Fair live @ Kiss FM100 (02/20/05)

    no no puedooo..:(:(
    disculpa q te joda..:p

  7. #7
    Fecha de ingreso
    23 octubre 2005
    Ubicación
    en castelar
    Edad
    31
    Agradecimientos

    Re: Luke Fair live @ Kiss FM100 (02/20/05)

    http://www.megaupload.com/es/?d=Y0VJCKAA
    todo bien, despues compartite algo bueno

Etiquetas para este tema

Información de tema

Usuarios viendo este tema

Actualmente hay 1 usuarios viendo este tema. (0 miembros y 1 visitantes)

Temas similares

  1. House Luke Fair Live Brahma Moonpark - 11.06.04
    Por juanpy_unlimited en el foro SETs
    Respuestas: 0
    Último mensaje: sábado 18 agosto de 2012, 19:32
  2. John Digweed & Luke Fair - Kiss 100 (22-04-2007)
    Por alekcei en el foro Radioshows
    Respuestas: 7
    Último mensaje: viernes 27 abril de 2007, 22:04
  3. Luke Fair - Kiss 100 2005 Shows - 2 Mixes
    Por digitaaal! en el foro Radioshows
    Respuestas: 9
    Último mensaje: sábado 11 febrero de 2006, 01:17
  4. Respuestas: 7
    Último mensaje: domingo 05 febrero de 2006, 18:44

Permisos de publicación

  • No puedes crear nuevos temas
  • No puedes responder temas
  • No puedes subir archivos adjuntos
  • No puedes editar tus mensajes
  •