Luke Fair - Live at Justmusic.fm 03.12.2005.
Resultados 1 al 8 de 8
  1. #1
    Fecha de ingreso
    27 enero 2005
    Ubicación
    Ciudad Autónoma de Buenos Aires
    Edad
    29
    Agradecimientos

    Luke Fair - Live at Justmusic.fm 03.12.2005.

    Luke Fair - Live at Justmusic.fm 03.12.2005.

    --------------------------------------------------------------------------

    http://www.megaupload.com/?d=RWTUO85C
    "The opinions expressed herein are not necessarily those of my employer, not necessarily mine, and probably not necessary."

  2. #2
    Fecha de ingreso
    16 enero 2005
    Ubicación
    Recolettta
    Agradecimientos

    Re: Luke Fair - Live at Justmusic.fm 03.12.2005.

    Esta muy lindo como siempre, lo unico en el min 15:47 se manda un zapateooo :S
    We Are Accidents Waiting To Happen* www.myspace.com/vuenos_ayres

  3. #3
    Fecha de ingreso
    26 febrero 2005
    Ubicación
    Buenos Aires
    Edad
    38
    Agradecimientos

    Re: Luke Fair - Live at Justmusic.fm 03.12.2005.

    salta el CD

  4. #4
    Fecha de ingreso
    16 enero 2005
    Ubicación
    Recolettta
    Agradecimientos

    Re: Luke Fair - Live at Justmusic.fm 03.12.2005.

    Cita Iniciado por electrocute Ver mensaje
    salta el CD
    Right, escuchandolo una vez mas me di cuenta que no era que zapateaba . Igual gracias por la confirmacion lucas =)
    We Are Accidents Waiting To Happen* www.myspace.com/vuenos_ayres

  5. #5
    Fecha de ingreso
    23 octubre 2005
    Ubicación
    en castelar
    Edad
    31
    Agradecimientos

    Re: Luke Fair - Live at Justmusic.fm 03.12.2005.

    tracklist??

  6. #6
    Fecha de ingreso
    23 octubre 2005
    Ubicación
    en castelar
    Edad
    31
    Agradecimientos

    Re: Luke Fair - Live at Justmusic.fm 03.12.2005.

    TITLE "Luke Fair - Live justmusic fm - dec. 3 2005"
    PERFORMER "Luke Fair"
    FILE "Luke Fair - Live justmusic fm - dec. 3 2005.mp3" MP3
    TRACK 01 AUDIO
    TITLE "ID"
    INDEX 01 00:00:00
    TRACK 02 AUDIO
    TITLE "Mike 303 - Sunshine (Ben Delay's Sugarland Rmx)"
    INDEX 01 05:26:47
    TRACK 03 AUDIO
    TITLE "ID"
    INDEX 01 09:31:39
    TRACK 04 AUDIO
    TITLE "Unknown - Everybody (Mike James Edit)"
    INDEX 01 15:38:59
    TRACK 05 AUDIO
    TITLE "Plastic Dreams - Fuse Move Your Body (Summer Of Love Remix)"
    INDEX 01 20:40:59
    TRACK 06 AUDIO
    TITLE "Moloko - Cannot Contain This (Tom Neville Dub)"
    INDEX 01 26:32:27
    TRACK 07 AUDIO
    TITLE "Herd & Fitz - Just Can't Get Enough (Raul Rincon Remix)"
    INDEX 01 32:39:22
    TRACK 08 AUDIO
    TITLE "Faith Evans - Mesmerized (Freemasons' Club Dub Mix)"
    INDEX 01 38:53:58
    TRACK 09 AUDIO
    TITLE "M - Feel (Dub Mix)"
    INDEX 01 44:45:24
    TRACK 10 AUDIO
    TITLE "ATFC Ft Inaya Day - Reach Out To Me (Haji & Emanuel Dub Remix)"
    INDEX 01 50:29:15
    TRACK 11 AUDIO
    TITLE "DJ Sender - What You Need"
    INDEX 01 56:05:08
    TRACK 12 AUDIO
    TITLE "Castelli & Perazzoli - On The Road"
    INDEX 01 61:40:42
    TRACK 13 AUDIO
    TITLE "Simple Minds - Theme For Great Cities (Remix)"
    INDEX 01 68:01:24
    TRACK 14 AUDIO
    TITLE "Shannon - Let It Play (Mike James Edit)"
    INDEX 01 73:21:19
    TRACK 15 AUDIO
    TITLE "Robbie Rivera feat. Laura Vane - One Eye Shut (Mark Knight's Toolroom Mix)"
    INDEX 01 78:33:44
    no me canso de escuchar este set

  7. #7
    Fecha de ingreso
    23 agosto 2005
    Ubicación
    Belgrano
    Edad
    31
    Agradecimientos

    Re: Luke Fair - Live at Justmusic.fm 03.12.2005.

    bajando

  8. #8
    Fecha de ingreso
    09 noviembre 2005
    Ubicación
    Buenos Aires
    Edad
    27
    Agradecimientos

    Re: Luke Fair - Live at Justmusic.fm 03.12.2005.

    bajando, debe tar re copado, saludos

Etiquetas para este tema

Información de tema

Usuarios viendo este tema

Actualmente hay 1 usuarios viendo este tema. (0 miembros y 1 visitantes)

Temas similares

  1. Progressive House Luke Fair - Live @ Justmusic.FM (18-07-2008)
    Por AEDRIAN en el foro Radioshows
    Respuestas: 0
    Último mensaje: viernes 18 julio de 2008, 20:24
  2. Respuestas: 15
    Último mensaje: martes 10 julio de 2007, 18:15
  3. Luke Fair - Live @ K2 Poznan 4.11.2005
    Por Javo en el foro SETs
    Respuestas: 20
    Último mensaje: martes 07 febrero de 2006, 23:04
  4. Pedido: Sets de Luke Fair del 2005
    Por Fede* en el foro Seccion para Pedidos
    Respuestas: 3
    Último mensaje: lunes 28 noviembre de 2005, 21:56

Permisos de publicación

  • No puedes crear nuevos temas
  • No puedes responder temas
  • No puedes subir archivos adjuntos
  • No puedes editar tus mensajes
  •