Seb Fontaine - Global Underground - Prototype 4 CD 1
Resultados 1 al 5 de 5
  1. #1
    Fecha de ingreso
    04 octubre 2004
    Ubicación
    Almagro
    Agradecimientos

    Seb Fontaine - Global Underground - Prototype 4 CD 1

    Seb Fontaine - Global Underground - Prototype 4 CD 1

    dense el gusto de escuchar este set....es realmente increible......mas si viene dentro de poco supuestamente ....los que no lo conocen aprovechen a escucharlo.

  2. #2
    Fecha de ingreso
    11 agosto 2004
    Ubicación
    Palermo
    Edad
    28
    Agradecimientos

  3. #3
    Fecha de ingreso
    31 agosto 2004
    Ubicación
    Lanus Oeste
    Edad
    34
    Agradecimientos

    Gracioso Re: Seb Fontaine - Global Underground - Prototype 4 CD 1

    audiTT pasame le nick del slsk !!!

    y le bajo hoy
    eL mio es pepe_04 !!!
    This is...

  4. #4
    Fecha de ingreso
    03 agosto 2004
    Ubicación
    CabashiT
    Edad
    34
    Agradecimientos

    Re: Seb Fontaine - Global Underground - Prototype 4 CD 1

    Una masa los Prototype, por mi parte recomiendo el primero de todos, el CD 1, es una fiestaaaaaaaaaaaaaaaaaaaaaa

  5. #5
    Fecha de ingreso
    25 octubre 2004
    Ubicación
    Quilmes
    Edad
    31
    Agradecimientos

    Re: Seb Fontaine - Global Underground - Prototype 4 CD 1

    aca les dejo el cue gente

    FILE "F:\Seb Fontaine - Prototypes (Global Underground)\04 - Seb Fontaine - Prototype\04 - Seb Fontaine - Prototype (Cd1).mp3" MP3
    TRACK 01 AUDIO
    TITLE "Cirque Cartledge - Cirque Music Vol. 1"
    INDEX 01 00:00:00
    TRACK 02 AUDIO
    TITLE "The Reaver - Mmmm"
    INDEX 01 07:17:00
    TRACK 03 AUDIO
    TITLE "Slynus 2 - Slynus"
    INDEX 01 12:06:00
    TRACK 04 AUDIO
    TITLE "Polarity - Subdued"
    INDEX 01 17:25:00
    TRACK 05 AUDIO
    TITLE "Sharam - Shaka"
    INDEX 01 23:27:00
    TRACK 06 AUDIO
    TITLE "Trancesetters - Synergy"
    INDEX 01 28:03:20
    TRACK 07 AUDIO
    TITLE "Stylus Trouble - Sputnik"
    INDEX 01 36:38:37
    TRACK 08 AUDIO
    TITLE "Sleepfreaks - Crash"
    INDEX 01 43:34:00
    TRACK 09 AUDIO
    TITLE "Durango - Lectronic"
    INDEX 01 48:38:00
    TRACK 10 AUDIO
    TITLE "DJ Remy Unger - Serious Damage"
    INDEX 01 55:21:00
    TRACK 11 AUDIO
    TITLE "Sound Associates - Music"
    INDEX 01 61:48:25
    TRACK 12 AUDIO
    TITLE "Sequenza - Sonic Blue"
    INDEX 01 68:29:17
    progresive trance
    130 bpm

Etiquetas para este tema

Información de tema

Usuarios viendo este tema

Actualmente hay 1 usuarios viendo este tema. (0 miembros y 1 visitantes)

Temas similares

  1. Respuestas: 1
    Último mensaje: miércoles 20 julio de 2011, 15:00
  2. House Seb Fontaine - Global Dance Sessions Week 23 - 23-06-2011
    Por ch1ll en el foro Radioshows
    Respuestas: 0
    Último mensaje: jueves 23 junio de 2011, 13:21
  3. Seb Fontaine - Underground Mix 22-06-2007
    Por AEDRIAN en el foro SETs
    Respuestas: 3
    Último mensaje: martes 10 julio de 2007, 17:17

Permisos de publicación

  • No puedes crear nuevos temas
  • No puedes responder temas
  • No puedes subir archivos adjuntos
  • No puedes editar tus mensajes
  •