[D.D (host privado) ] DJ Tiesto - Live at Duplex Praga, 20-11-2005

-- Publicidad --

Delta 90.3

Resultados 1 al 3 de 3
  1. #1
    Fecha de ingreso
    17 octubre 2005
    Ubicación
    Devoto
    Agradecimientos

    [D.D (host privado) ] DJ Tiesto - Live at Duplex Praga, 20-11-2005

    http://www.riseloutek.cz/tiesto/DJ_T...1-2005-aSH.zip

    notese el tune 17 , q esta en mi firma TEMAZO


    DJ Tiesto - 2005-11-20 - Live @ Club Duplex - Prague, CZ

    1. Reflekt ft. Delline Bass - Need To Feel Loved (Fuzzy Hair Vocal Mix
    02. Erick E - Boogie Down
    03. Late Night Alumni - Empty Streets (Seamus Haji & Paul Emmanuel Remix
    04. Eric Prydz & Steve Angello - Woz Not Woz (Version 2
    05. Elio Riso & Raffunk - To Be Or Not To Be
    06. Coca & Ville - La Noche (ISOS Edit
    07. Paul Jackson & Steve Smith - The Push (Far From Here
    08. ID
    09. Electro-Prompt - Beside Me (Gothek DC Remix
    10. The Killers - Mr. Brightside (Thin White Duke Remix
    11. Way Out West - Mindcircus (Gabriel & Dresden Club Mix
    12. Booka Shade - Mandarine Girl
    13. Sublunar - Sanctuary (Antidotes Tech Remix
    14. ID
    15. Matthew Dekay - Clearing The mind
    16. Petersky & Peres - Hello Ladies
    17. Luminary - Amsterdam
    18. Pryda - The Gift
    19. ID
    20. Andain - Beautiful Things (Gabriel & Dresden Unplugged Mix
    21. ID
    22. BT - Mercury & Solace (12 Master Mix
    23. Above & Beyond & Andy Moor - Air For Life (Original Mix
    24. Tiesto - Traffic (Original Mix

    CUE: copy y paste en notepad, dps lo graban con extension .cue ( ej: blabla.cue)

    TRACK 01 AUDIO
    TITLE "Boogie Down
    PERFORMER "02. Erick E
    INDEX 01 00:00:00
    TRACK 02 AUDIO
    TITLE "Empty Streets (Seamus Haji & Paul Emmanuel Remix
    PERFORMER "03. Late Night Alumni
    INDEX 01 01:10:00
    TRACK 03 AUDIO
    TITLE "Woz Not Woz (Version 2
    PERFORMER "04. Eric Prydz & Steve Angello
    INDEX 01 05:05:00
    TRACK 04 AUDIO
    TITLE "05. Elio Riso & Raffunk - To Be Or Not To Be
    INDEX 01 10:45:00
    TRACK 05 AUDIO
    TITLE "La Noche (ISOS Edit
    PERFORMER "06. Coca & Ville
    INDEX 01 14:35:00
    TRACK 06 AUDIO
    TITLE "The Push (Far From Here
    PERFORMER "07. Paul Jackson & Steve Smith
    INDEX 01 20:41:00
    TRACK 07 AUDIO
    TITLE "ID
    PERFORMER "08
    INDEX 01 28:08:00
    TRACK 08 AUDIO
    TITLE "Prompt - Beside Me (Gothek DC Remix
    PERFORMER "09. Electro
    INDEX 01 34:43:00
    TRACK 09 AUDIO
    TITLE "Mr. Brightside (Thin White Duke Remix
    PERFORMER "10. The Killers
    INDEX 01 41:30:00
    TRACK 10 AUDIO
    TITLE "Mindcircus (Gabriel & Dresden Club Mix
    PERFORMER "11. Way Out West
    INDEX 01 47:40:00
    TRACK 11 AUDIO
    TITLE "Mandarine Girl
    PERFORMER "12. Booka Shade
    INDEX 01 54:52:00
    TRACK 12 AUDIO
    TITLE "Sanctuary (Antidotes Tech Remix
    PERFORMER "13. Sublunar
    INDEX 01 59:51:30
    TRACK 13 AUDIO
    TITLE "ID
    PERFORMER "14. ID
    INDEX 01 66:03:00
    TRACK 14 AUDIO
    TITLE "Clearing The mind
    PERFORMER "15. Matthew Dekay
    INDEX 01 71:48:00
    TRACK 15 AUDIO
    TITLE "Hello Ladies
    PERFORMER "16. Petersky & Peres
    INDEX 01 75:35:00
    TRACK 16 AUDIO
    TITLE "Amsterdam
    PERFORMER "17. Luminary
    INDEX 01 80:05:00
    TRACK 17 AUDIO
    TITLE "The Gift
    PERFORMER "18. Pryda
    INDEX 01 85:20:00
    TRACK 18 AUDIO
    TITLE "ID
    PERFORMER "19. ID
    INDEX 01 91:10:00
    TRACK 19 AUDIO
    TITLE "Beautiful Things (Gabriel & Dresden Unplugged Mix
    PERFORMER "20. Andain
    INDEX 01 97:26:00
    TRACK 20 AUDIO
    TITLE "ID
    PERFORMER "21. ID
    INDEX 01 105:25:00
    TRACK 21 AUDIO
    TITLE "Mercury & Solace (12 Master Mix
    PERFORMER "22. BT
    INDEX 01 112:45:00
    TRACK 22 AUDIO
    TITLE "Air For Life (Original Mix
    PERFORMER "23. Above & Beyond & Andy Moor
    INDEX 01 119:40:00
    TRACK 23 AUDIO
    TITLE "Traffic (Original Mix
    PERFORMER "24. Tiesto
    INDEX 01 123:05:00
    Última edición por Zequi; jueves 01 diciembre de 2005 a las 11:50

  2. #2
    Fecha de ingreso
    16 enero 2005
    Ubicación
    Recolettta
    Agradecimientos

    Re: [D.D (host privado) ] DJ Tiesto - Live at Duplex Praga, 20-11-2005

    We Are Accidents Waiting To Happen* www.myspace.com/vuenos_ayres

  3. #3
    Fecha de ingreso
    17 octubre 2005
    Ubicación
    Devoto
    Agradecimientos

    Re: [D.D (host privado) ] DJ Tiesto - Live at Duplex Praga, 20-11-2005

    lo busque como "tiesto praga" y "tiesto cz" y no salto :S:S

Etiquetas para este tema

Información de tema

Usuarios viendo este tema

Actualmente hay 1 usuarios viendo este tema. (0 miembros y 1 visitantes)

Temas similares

  1. Tiesto - Live at Duplex Prague 20-11-2005
    Por chApu en el foro SETs
    Respuestas: 1
    Último mensaje: jueves 11 mayo de 2006, 00:08
  2. [D.D.(host privado)] A State Of Trance 225
    Por Zequi en el foro SETs
    Respuestas: 5
    Último mensaje: viernes 02 diciembre de 2005, 12:47
  3. Respuestas: 2
    Último mensaje: jueves 24 noviembre de 2005, 21:33
  4. DJ Tiësto - Live At Duplex, Prague 20.11.05
    Por Grimgroth en el foro SETs
    Respuestas: 2
    Último mensaje: jueves 24 noviembre de 2005, 21:09
  5. Dj Tiesto - Live at Duplex
    Por Mario Bros. en el foro SETs
    Respuestas: 0
    Último mensaje: jueves 24 noviembre de 2005, 08:49

Permisos de publicación

  • No puedes crear nuevos temas
  • No puedes responder temas
  • No puedes subir archivos adjuntos
  • No puedes editar tus mensajes
  •