Luke Fair - Live @ K2 Poznan 4.11.2005
Página 1 de 2 1 2 ÚltimoÚltimo
Resultados 1 al 20 de 21
  1. #1
    Fecha de ingreso
    20 mayo 2005
    Ubicación
    Tijuana
    Edad
    35
    Agradecimientos

    Luke Fair - Live @ K2 Poznan 4.11.2005

    http://www.mediaprodesigns.com/test/...n_11-04-05.mp3

    Enjoy...





    digitaaal edit - link para yousendit: luke fair @ k2
    "Don't gain the world and lose your soul, Wisdom is better than silver and gold."
    Bob Marley

  2. #2
    Fecha de ingreso
    11 agosto 2004
    Ubicación
    Palermo
    Edad
    28
    Agradecimientos

  3. #3
    Fecha de ingreso
    17 octubre 2005
    Ubicación
    caballito
    Edad
    30
    Agradecimientos

    Re: Luke Fair - Live @ K2 Poznan 4.11.2005

    joya! ahora lo bajo.. thx!

  4. #4
    Fecha de ingreso
    16 enero 2005
    Ubicación
    Recolettta
    Agradecimientos

    Re: Luke Fair - Live @ K2 Poznan 4.11.2005

    Gracias men, no se encuiantra mucho en la web de Luke =)... thanks
    We Are Accidents Waiting To Happen* www.myspace.com/vuenos_ayres

  5. #5
    Fecha de ingreso
    28 abril 2005
    Ubicación
    Dentro de un durazno
    Edad
    35
    Agradecimientos

    Re: Luke Fair - Live @ K2 Poznan 4.11.2005

    tenkiu beri mucho
    ...With your feet in the air and your head on the ground... www.djnicob.com.ar
    www.myspace.com/nnicob

  6. #6
    Fecha de ingreso
    11 agosto 2004
    Ubicación
    Palermo
    Edad
    28
    Agradecimientos

    Re: Luke Fair - Live @ K2 Poznan 4.11.2005

    awsome set! me gusto bastante, la verdad que el estilo de luke me gusta bastante. las mezclas, la seleccion de temas, todo es muy bueno de el.

    por si a alguien le gustaron, conozco & tengo dos temas - el que los quiera, tengo el msn en la firma!

    Eddie Thoneick - Release The Tension (Original Mix) - 22:56 a 29:20
    Paul Rogers - Three's a Crowd 52:00 a el final

    la verdad que el tema de Paul Rogers se los recomiendo a todos, es excelente!

  7. #7
    Fecha de ingreso
    24 agosto 2004
    Ubicación
    Pilar
    Agradecimientos

    Re: Luke Fair - Live @ K2 Poznan 4.11.2005

    Alguien tiene el Tracklist completo de este set ?

  8. #8
    Fecha de ingreso
    20 mayo 2005
    Ubicación
    Tijuana
    Edad
    35
    Agradecimientos

    Re: Luke Fair - Live @ K2 Poznan 4.11.2005

    Todavia no lo logro conseguir... sigo buscando...

    Al parecer el link murio... alguien que ya se lo haya bajado se copa y lo sube a alguno de estos links directos??? (a mi se me mezclo con otras cosas y lo borre...)

    Gracias!!!

    pd: este set esta de la ostia!

  9. #9
    Fecha de ingreso
    11 agosto 2004
    Ubicación
    Palermo
    Edad
    28
    Agradecimientos

    Re: Luke Fair - Live @ K2 Poznan 4.11.2005

    ahi te lo subo campeon! dame un rato y posteo el link nuevo! (fijate en 2 horas, que voy a editar y no va a aparecer como mensaje nuevo me parece)

    edit - link para yousendit: luke fair @ k2

  10. #10
    Fecha de ingreso
    28 abril 2005
    Ubicación
    Dentro de un durazno
    Edad
    35
    Agradecimientos

    Re: Luke Fair - Live @ K2 Poznan 4.11.2005

    Che. si alguien no bajo este set... pffff.... bajelo ya....
    necesitaba agradecer de nuevo..
    ...With your feet in the air and your head on the ground... www.djnicob.com.ar
    www.myspace.com/nnicob

  11. #11
    Fecha de ingreso
    30 mayo 2005
    Ubicación
    Capital
    Edad
    33
    Agradecimientos

    Re: Luke Fair - Live @ K2 Poznan 4.11.2005

    Zarpado....muchas Gracias.
    Muuuy parecido al set q hizo en CF

  12. #12
    Fecha de ingreso
    16 agosto 2005
    Ubicación
    Capital Federal
    Edad
    38
    Agradecimientos

    Re: Luke Fair - Live @ K2 Poznan 4.11.2005

    Muy parecido al Impersionante set de este muchacho en Creamfield, es un fiestero, muy buena seleccion de temas, mejores enganches, un GALAN
    Nunca pares de bailar

  13. #13
    Fecha de ingreso
    23 agosto 2005
    Ubicación
    Belgrano
    Edad
    31
    Agradecimientos

    Re: Luke Fair - Live @ K2 Poznan 4.11.2005

    jaja mui bueno. un misil atras de otro!

  14. #14
    Fecha de ingreso
    20 mayo 2005
    Ubicación
    Tijuana
    Edad
    35
    Agradecimientos

    Re: Luke Fair - Live @ K2 Poznan 4.11.2005

    Cita Iniciado por digitaaal! Ver mensaje
    ahi te lo subo campeon! dame un rato y posteo el link nuevo! (fijate en 2 horas, que voy a editar y no va a aparecer como mensaje nuevo me parece)
    edit - link para yousendit: luke fair @ k2
    Gracias kpo!... y por enesima vez.... alto set...

  15. #15
    Fecha de ingreso
    17 febrero 2005
    Ubicación
    Zona Norte
    Agradecimientos

    Re: Luke Fair - Live @ K2 Poznan 4.11.2005

    dELORTO

  16. #16
    Fecha de ingreso
    23 octubre 2005
    Ubicación
    en castelar
    Edad
    31
    Agradecimientos

    Re: Luke Fair - Live @ K2 Poznan 4.11.2005

    este set es mortal, alguien sabe de quien es el tema q comienza en el minuto 5 ?

  17. #17
    Fecha de ingreso
    29 noviembre 2005
    Ubicación
    Lanus
    Agradecimientos

    Re: Luke Fair - Live @ K2 Poznan 4.11.2005

    alguien lo podria subir de vuelta? ambos links caducaron :(
    EL_WACHITURRO
    soundcloud [dot] com/rejipishic
    mixcloud [dot] com/29054166

    underground club music & more

  18. #18
    Fecha de ingreso
    11 agosto 2004
    Ubicación
    Palermo
    Edad
    28
    Agradecimientos

    Re: Luke Fair - Live @ K2 Poznan 4.11.2005

    Cita Iniciado por bsp Ver mensaje
    alguien lo podria subir de vuelta? ambos links caducaron :(
    ahora lo pongo a subir! para mañana esta con suerte

    here you go: http://s52.yousendit.com/d.aspx?id=2...I0VXEGKO4I8F37
    Última edición por digitaaal!; miércoles 04 enero de 2006 a las 18:47 Razón: Sistema Automatico de Union de Mensajes Duplicados

  19. #19
    Fecha de ingreso
    23 octubre 2005
    Ubicación
    en castelar
    Edad
    31
    Agradecimientos

    Re: Luke Fair - Live @ K2 Poznan 4.11.2005

    TITLE "Live @ K2 Poznan 2005-11-04"
    PERFORMER "Luke Fair"
    FILE "Luke Fair - Live K2 Poznan - 04.11.05.mp3" MP3
    TRACK 01 AUDIO
    TITLE "KLF - 3AM Eternal (unknown bootleg mix)"
    INDEX 01 00:00:00
    TRACK 02 AUDIO
    TITLE "Syke'n'Sugarstarr - Watching You [Edit] - Do the Hip records"
    INDEX 01 04:40:00
    TRACK 03 AUDIO
    TITLE "Haji & Emanuel - Take Me Away (Vocal Mix)"
    INDEX 01 09:57:00
    TRACK 04 AUDIO
    TITLE "unknown - Soulmind ( rollo edit )"
    INDEX 01 17:07:00
    TRACK 05 AUDIO
    TITLE "Eddie Thoneick - Release The Tension (Original Mix)"
    INDEX 01 22:26:00
    TRACK 06 AUDIO
    TITLE "Earnest St Laurent - Freaky Funk"
    INDEX 01 28:21:00
    TRACK 07 AUDIO
    TITLE "El-President - Without You (Infusion Dub)"
    INDEX 01 35:00:00
    TRACK 08 AUDIO
    TITLE "ID"
    INDEX 01 40:31:30
    TRACK 09 AUDIO
    TITLE "Robbie Rivera feat. Laura Vane - One Eye Shut (Mark Knight's Toolroom Mix)"
    INDEX 01 45:27:30
    TRACK 10 AUDIO
    TITLE "Paul Rogers - Three's A Crowd ( RR edit ??? )"
    INDEX 01 52:15:00
    puede haber errores

  20. #20
    Fecha de ingreso
    06 diciembre 2004
    Ubicación
    bs as
    Edad
    32
    Agradecimientos

    Re: Luke Fair - Live @ K2 Poznan 4.11.2005

    desde la moonpark todo lo q veo de el lo bajo.. gracias !
    "Sure we see lots of retro attributes in techno, but it's always tinged with a newness - something fresh. Or at least that is my take on it. With techno you always stay true to these defining things, like a kick drum and a hi-hat -- but the patterns are limitless, and the sounds one can generate are infinite."
    Interview with Bruno Pronsato - 23 April 2005

Página 1 de 2 1 2 ÚltimoÚltimo

Etiquetas para este tema

Información de tema

Usuarios viendo este tema

Actualmente hay 1 usuarios viendo este tema. (0 miembros y 1 visitantes)

Temas similares

  1. Respuestas: 1
    Último mensaje: lunes 17 septiembre de 2012, 13:28
  2. Luke Fair - Kiss 100 2005 Shows - 2 Mixes
    Por digitaaal! en el foro Radioshows
    Respuestas: 9
    Último mensaje: sábado 11 febrero de 2006, 01:17
  3. Respuestas: 7
    Último mensaje: domingo 05 febrero de 2006, 18:44
  4. Pedido: Sets de Luke Fair del 2005
    Por Fede* en el foro Seccion para Pedidos
    Respuestas: 3
    Último mensaje: lunes 28 noviembre de 2005, 21:56

Permisos de publicación

  • No puedes crear nuevos temas
  • No puedes responder temas
  • No puedes subir archivos adjuntos
  • No puedes editar tus mensajes
  •