Shiloh & Chable - October 2005 Mix
Resultados 1 al 2 de 2
  1. #1
    Fecha de ingreso
    01 noviembre 2004
    Ubicación
    La Plata
    Edad
    32
    Agradecimientos

    Feliz Shiloh & Chable - October 2005 Mix

    Link: http://files.hybridized.org/sets/shi...005-10-06).mp3

    Tracklist:
    01. Massive Attack - Teardrop (Unknown Remix) [Cdr]
    02. Aphex Twin - Window Licker (Kriece Remix) [Cdr]
    03. Underworld - Jumbo (Futureshock Alt. Mix)
    04. Jon Gurd - Mind Control (Jon Gurd & Dave Robertson Remix) [Cdr]
    05. Groove Rebels - Untight [Cdr]
    06. Union Jack - Two Full Moons & A Trout (Luke Chable Remix) [Platipus]
    07. Orbital - Lush 3-2 [Internal]
    08. Unknown Artist - ID (Mimi Remix) [H Man]
    09. Adam Freeland - Heel & Toe (Daniel Taylor Remix) [Marine Parade]
    10. Ego Express - Knartz IV [Ladomat 2000/Mute]
    11. Ozgur Can - Changed (Gabriel & Dresden Remix) [Cdr]
    12. Basement Jaxx - Hit The Spot (Switch Remix) [Cdr]
    13. Tomas Andersson - Washing Up (Tiga Mix) [Cdr]
    14. Pryda - Aftermath [Cdr]
    15. Royksopp - 49 Percent (Steve Angello + Sebastian Ingrosso mix) [Cdr]
    16. Way Out West - The Fall (Bedrock Remix) [Distinctive]
    17. Panopticon - Revealing The Door (Mangan & Quinn Remix) [Therapy]
    18. Glamour To Kill - In Ur Eyes (Greed Remix) [Cdr]
    19. Jaytech - Expidition [Trojan cdr]
    20. Daft Punk - Robot Rock (Shiloh Remix) [Cdr]
    21. Soulwax - E-Talking (Hybrid Remix) [Cdr]
    22. Shiloh - Just Because [Trojan Cdr]

    CUE:
    TITLE "October 2005 Mix (2005-10-06)"
    PERFORMER "Shiloh & Chable"
    FILE "Shiloh & Chable - October 2005 Mix (2005-10-06).mp3" MP3
    TRACK 01 AUDIO
    TITLE "Teardrop (Unknown Remix)"
    PERFORMER "Massive Attack"
    INDEX 01 00:00:00
    TRACK 02 AUDIO
    TITLE "Window Licker (Kriece Remix)"
    PERFORMER "Aphex Twin"
    INDEX 01 10:07:40
    TRACK 03 AUDIO
    TITLE "Dexter Punk"
    PERFORMER "Unknown Artist"
    INDEX 01 16:07:40
    TRACK 04 AUDIO
    TITLE "Mind Control (Jon Gurd & Dave Robertson Remix)"
    PERFORMER "Jon Gurd"
    INDEX 01 22:37:38
    TRACK 05 AUDIO
    TITLE "Untight"
    PERFORMER "Groove Rebels"
    INDEX 01 26:52:38
    TRACK 06 AUDIO
    TITLE "Two Full Moons & A Trout (Luke Chable Remix)"
    PERFORMER "Union Jack"
    INDEX 01 31:00:00
    TRACK 07 AUDIO
    TITLE "Lush 3-2"
    PERFORMER "Orbital"
    INDEX 01 37:52:38
    TRACK 08 AUDIO
    TITLE "ID (Mimi Remix)"
    PERFORMER "Unknown Artist"
    INDEX 01 40:52:38
    TRACK 09 AUDIO
    TITLE "Heel & Toe (Daniel Taylor Remix)"
    PERFORMER "Adam Freeland"
    INDEX 01 45:26:19
    TRACK 10 AUDIO
    TITLE "Oh My God, It's Techno Music"
    PERFORMER "Unknown Artist"
    INDEX 01 51:07:38
    TRACK 11 AUDIO
    TITLE "Changed (Gabriel & Dresden Remix)"
    PERFORMER "Ozgur Can"
    INDEX 01 55:00:00
    TRACK 12 AUDIO
    TITLE "Hit The Spot (Switch Remix)"
    PERFORMER "Basement Jaxx"
    INDEX 01 59:00:00
    TRACK 13 AUDIO
    TITLE "Washing Up (Tiga Mix)"
    PERFORMER "Tomas Andersson"
    INDEX 01 63:07:38
    TRACK 14 AUDIO
    TITLE "Aftermath"
    PERFORMER "Pryda"
    INDEX 01 67:30:02
    TRACK 15 AUDIO
    TITLE "49 Percent (Unknown Remix)"
    PERFORMER "Royksopp"
    INDEX 01 79:00:35
    TRACK 16 AUDIO
    TITLE "The Fall (Bedrock Remix)"
    PERFORMER "Way Out West"
    INDEX 01 84:45:38
    TRACK 17 AUDIO
    TITLE "The Door (Mangan & Quinn Remix)"
    PERFORMER "Penopticon"
    INDEX 01 93:00:15
    TRACK 18 AUDIO
    TITLE "In Ur Eyes (Greed Remix)"
    PERFORMER "Glamour To Kill"
    INDEX 01 98:45:38
    TRACK 19 AUDIO
    TITLE "Expidition"
    PERFORMER "Jaytech"
    INDEX 01 105:19:18
    TRACK 20 AUDIO
    TITLE "Robot Rock (Shiloh Remix)"
    PERFORMER "Daft Punk"
    INDEX 01 110:19:18
    TRACK 21 AUDIO
    TITLE "E-Talking (Hybrid Remix)"
    PERFORMER "Soulwax"
    INDEX 01 115:49:18
    TRACK 22 AUDIO
    TITLE "Just Because"
    PERFORMER "Shiloh"
    INDEX 01 122:56:55


    Enjoy

  2. #2
    Fecha de ingreso
    01 noviembre 2004
    Ubicación
    La Plata
    Edad
    32
    Agradecimientos

    Re: Shiloh & Chable - October 2005 Mix

    Bump.

    Si tienen la posibilidad bajenselo, muy muy recomendable.. les dejo el link de la página por si tienen problemas con la descarga directa, ahí hay un torrent que anda bastante bien me parece. Y también les dejo el tracklist un poquito mas completo.

    Link: http://www.hybridized.org/sets/?id=291

    TL:
    01. Massive Attack - Teardrop (Unknown Remix) [Cdr]
    02. Aphex Twin - Window Licker (Kriece Remix) [Cdr]
    03. Underworld - Jumbo (Futureshock Alt. Mix)
    04. Jon Gurd - Mind Control (Jon Gurd & Dave Robertson Remix) [Cdr]
    05. Groove Rebels - Untight [Cdr]
    06. Union Jack - Two Full Moons & A Trout (Luke Chable Remix) [Platipus]
    07. Orbital - Lush 3-2 [Internal]
    08. Unknown Artist - ID (Mimi Remix) [H Man]
    09. Adam Freeland - Heel & Toe (Daniel Taylor Remix) [Marine Parade]
    10. Ego Express - Knartz IV [Ladomat 2000/Mute]
    11. Ozgur Can - Changed (Gabriel & Dresden Remix) [Cdr]
    12. Basement Jaxx - Hit The Spot (Switch Remix) [Cdr]
    13. Tomas Andersson - Washing Up (Tiga Mix) [Cdr]
    14. Pryda - Aftermath [Cdr]
    15. Royksopp - 49 Percent (Steve Angello + Sebastian Ingrosso mix) [Cdr]
    16. Way Out West - The Fall (Bedrock Remix) [Distinctive]
    17. Panopticon - Revealing The Door (Mangan & Quinn Remix) [Therapy]
    18. Glamour To Kill - In Ur Eyes (Greed Remix) [Cdr]
    19. Jaytech - Expidition [Trojan cdr]
    20. Daft Punk - Robot Rock (Shiloh Remix) [Cdr]
    21. Soulwax - E-Talking (Hybrid Remix) [Cdr]
    22. Shiloh - Just Because [Trojan Cdr]

Etiquetas para este tema

Información de tema

Usuarios viendo este tema

Actualmente hay 1 usuarios viendo este tema. (0 miembros y 1 visitantes)

Temas similares

  1. House Shiloh - Baroque presents Shiloh On Proton Radio (09-03-2009)
    Por AEDRIAN en el foro Radioshows
    Respuestas: 0
    Último mensaje: lunes 09 marzo de 2009, 12:55
  2. Shiloh & Chable - October 2005 Mix, 2005-10-06
    Por polheredia en el foro SETs
    Respuestas: 1
    Último mensaje: lunes 24 octubre de 2005, 16:22
  3. Shiloh & Chable - October 2005 Mix
    Por jula en el foro SETs
    Respuestas: 0
    Último mensaje: viernes 07 octubre de 2005, 13:56

Permisos de publicación

  • No puedes crear nuevos temas
  • No puedes responder temas
  • No puedes subir archivos adjuntos
  • No puedes editar tus mensajes
  •