Deep Dish - live at Oxygen Ireland 10-07-2005

-- Publicidad --

Aftercluv 7

Resultados 1 al 9 de 9
  1. #1
    Fecha de ingreso
    26 junio 2005
    Ubicación
    Oaxaca
    Edad
    31
    Agradecimientos

    Gracioso Deep Dish - live at Oxygen Ireland 10-07-2005

    exelente set para los amantes del Deep - recomendado -




    http://www.megaupload.com/?d=37B9OO7Z
    password: facufiles

  2. #2
    Fecha de ingreso
    07 septiembre 2005
    Ubicación
    Wilde
    Edad
    30
    Agradecimientos

    Re: Deep Dish - live at Oxygen Ireland 10-07-2005

    Lo estoy bajando ahora,para ver q onda,gracias!!!
    "sabes q cuando era pendejo una vez llame a una radio para pedir q pasen fascination"

    Facu_vandit 13/03/08

  3. #3
    Fecha de ingreso
    09 mayo 2005
    Ubicación
    Ciudad autonoma de Buenos Aire
    Edad
    30
    Agradecimientos

    Re: Deep Dish - live at Oxygen Ireland 10-07-2005

    ghratzieeee!!!!
    [PendeJo*.]

    [FONT="Impact"] I LOVE @ PARTY [/FONT]

    dale dale dale daleeeeeeee !!!

    SAP es vida. Únete!
    Afiliado Oficial.


  4. #4
    Fecha de ingreso
    06 agosto 2004
    Ubicación
    ba
    Edad
    27
    Agradecimientos

    Re: Deep Dish - live at Oxygen Ireland 10-07-2005

    CUE

    PERFORMER "Deep Dish"
    TITLE "Live @ Oxygen, Ireland (10.07.2005)"
    FILE "01_deep_dish_-_live_at_oxygen-ireland-07-10-2005.mp3" MP3
    TRACK 01 AUDIO
    PERFORMER "Armand Van Helden"
    TITLE "Psycho Bounty Killaz"
    INDEX 01 00:00:00
    TRACK 02 AUDIO
    PERFORMER ""
    TITLE "ID"
    INDEX 01 06:44:30
    TRACK 03 AUDIO
    PERFORMER "Sucka DJ's"
    TITLE "Lotta Lovin' (Paradise Soul Remix)"
    INDEX 01 10:55:05
    TRACK 04 AUDIO
    PERFORMER "Deep Dish vs. Lenny Kravitz"
    TITLE "Are You Gonna Go My Way ? (Remix)"
    INDEX 01 16:38:55
    TRACK 05 AUDIO
    PERFORMER "Planet Funk"
    TITLE "Tears After The Rainbow"
    INDEX 01 22:51:20
    TRACK 06 AUDIO
    PERFORMER ""
    TITLE "ID"
    INDEX 01 31:43:10
    TRACK 07 AUDIO
    PERFORMER "Deep Dish vs. Dire Straits"
    TITLE "Flashing For Money (Sultan Mix)"
    INDEX 01 38:23:20
    TRACK 08 AUDIO
    PERFORMER "Eric Sneo"
    TITLE "TM"
    INDEX 01 48:11:00
    TRACK 09 AUDIO
    PERFORMER "Gabriel & Dresden pres. Motorcycle"
    TITLE "My Blue Heart (Remix)"
    INDEX 01 53:44:00

  5. #5
    Fecha de ingreso
    11 abril 2005
    Ubicación
    En varela city
    Edad
    30
    Agradecimientos

  6. #6
    Fecha de ingreso
    03 junio 2005
    Ubicación
    Vivo en Ramos Mejia
    Edad
    34
    Agradecimientos

    Re: Deep Dish - live at Oxygen Ireland 10-07-2005

    Perfecto !!
    una duda que tengo .....
    viene deep dish a la cream este año ?
    besos CHOOOO !!

    *+* Goni *+*

  7. #7
    Fecha de ingreso
    11 abril 2005
    Ubicación
    En varela city
    Edad
    30
    Agradecimientos

  8. #8
    Fecha de ingreso
    26 junio 2005
    Ubicación
    Oaxaca
    Edad
    31
    Agradecimientos
    mi buen....con esa contraseña descomprimi ese archivo... "facufiles" espero arregles tu problema
    suerte

  9. #9
    Fecha de ingreso
    08 junio 2005
    Ubicación
    Capital Federal
    Edad
    31
    Agradecimientos
    Gracias man! lo estoy bajando con mucha energia......

Etiquetas para este tema

Información de tema

Usuarios viendo este tema

Actualmente hay 1 usuarios viendo este tema. (0 miembros y 1 visitantes)

Temas similares

  1. House Deep Dish live @ queen 11-04-2005
    Por Mario Bros. en el foro SETs
    Respuestas: 1
    Último mensaje: lunes 20 octubre de 2008, 03:23
  2. House Deep Dish - Live @ Skyrave 25-12-2005
    Por AndreXIII en el foro SETs
    Respuestas: 2
    Último mensaje: lunes 20 octubre de 2008, 03:20
  3. Respuestas: 0
    Último mensaje: domingo 18 mayo de 2008, 14:55
  4. House Deep Dish - Live at the Prince Melbourne (16-07-2005)
    Por luisonte en el foro SETs
    Respuestas: 1
    Último mensaje: jueves 10 abril de 2008, 10:57
  5. Deep Dish - Live at Oxygen Ireland 10-07-2005
    Por polheredia en el foro SETs
    Respuestas: 1
    Último mensaje: lunes 08 agosto de 2005, 02:04

Permisos de publicación

  • No puedes crear nuevos temas
  • No puedes responder temas
  • No puedes subir archivos adjuntos
  • No puedes editar tus mensajes
  •