Hernan Cattaneo @ Moonpark 17-09-04 (la famosa 2da parte) - Página 3
Página 3 de 3 PrimerPrimer 1 2 3
Resultados 41 al 46 de 46
  1. #41
    Fecha de ingreso
    25 octubre 2005
    Ubicación
    Capital Federal
    Edad
    36
    Agradecimientos

    Re: Hernan Cattaneo @ Moonpark 17-09-04 (la famosa 2da parte)

    Parte 1

    TRACK 01 AUDIO
    PERFORMER "01. Depeche Mode"
    TITLE "Enjoy The Silence (Timo Maas Remix)"
    INDEX 01 00:00:00
    TRACK 02 AUDIO
    PERFORMER "02. Vance Musgroove"
    TITLE "Freak Out"
    INDEX 01 09:32:40
    TRACK 03 AUDIO
    PERFORMER "03. 16B"
    TITLE "Colours (Mike Brin Remix)"
    INDEX 01 16:17:40
    TRACK 04 AUDIO
    PERFORMER "05. Moshic & Zidan"
    TITLE "Nightstalker"
    INDEX 01 23:57:00
    TRACK 05 AUDIO
    PERFORMER "06. Randall Jones"
    TITLE "drifting minds"
    INDEX 01 30:22:00
    TRACK 06 AUDIO
    PERFORMER "07. Deepsky"
    TITLE "Talk Like A Stranger (Markus Shulz Dub Remix)"
    INDEX 01 36:53:00
    TRACK 07 AUDIO
    PERFORMER "08. Dousk"
    TITLE "Pa Dida"
    INDEX 01 43:23:00
    TRACK 08 AUDIO
    PERFORMER "09. Deep Mariano"
    TITLE "Phobia"
    INDEX 01 50:41:05
    TRACK 09 AUDIO
    PERFORMER "10.Hernan Cattaneo & john tonks "
    TITLE "Warsaw"
    INDEX 01 59:30:00
    TRACK 10 AUDIO
    PERFORMER "11.Innerstate"
    TITLE "Sidewinder (Hiratzka remiX)"
    INDEX 01 68:00:00


    Part 2.
    TRACK 01 AUDIO
    PERFORMER "01.Goldfrapp "
    TITLE "Strict Machine (victor calderone remix)"
    INDEX 01 00:00:00
    TRACK 02 AUDIO
    PERFORMER "02.John Creamer"
    TITLE "02.Forget the world (Hernan mashup) "
    INDEX 01 07:20:00
    TRACK 03 AUDIO
    PERFORMER "03.Victor Calderone"
    TITLE "Resonate "
    INDEX 01 13:00:00
    TRACK 04 AUDIO
    PERFORMER "04.Graham and Blades"
    TITLE "Real"
    INDEX 01 20:00:00
    TRACK 05 AUDIO
    PERFORMER "05.Mathew Dekay"
    TITLE "Behind the secret borders"
    INDEX 01 28:30:00
    TRACK 06 AUDIO
    PERFORMER "06.Michael Burns"
    TITLE "See me fall (Bart Van Wissen) "
    INDEX 01 36:00:00
    TRACK 07 AUDIO
    PERFORMER "07.Pqm"
    TITLE "You are sleeping (Steve May Remix) "
    INDEX 01 41:50:00
    TRACK 08 AUDIO
    PERFORMER "07.Jeff Bennett"
    TITLE "Strange Items (H. Cattaneo & John Tonks unreleased mix) "
    INDEX 01 49:50:00
    TRACK 09 AUDIO
    PERFORMER "08.Hybrid"
    TITLE "Higher than a skycraper (Satoshi Tomiie rmx) "
    INDEX 01 56:40:00
    TRACK 10 AUDIO
    PERFORMER "09.ID"
    TITLE "ID"
    INDEX 01 66:00:00
    TRACK 11 AUDIO
    PERFORMER "10.The Mfa"
    TITLE "Motherload "
    INDEX 01 73:40:00


    Part 3
    TRACK 01 AUDIO
    PERFORMER "01. Redanka"
    TITLE "Waves (e-mission mix)"
    INDEX 01 00:00:00
    TRACK 02 AUDIO
    PERFORMER "02. Murat Uncu"
    TITLE "format drop"
    INDEX 01 09:32:40
    TRACK 03 AUDIO
    PERFORMER "03.Kosmas Epsilon"
    TITLE "Architect"
    INDEX 01 16:17:40
    TRACK 04 AUDIO
    PERFORMER "04. Martin Accorsi and Tim Skinner"
    TITLE "playing for digweed"
    INDEX 01 23:57:00
    TRACK 05 AUDIO
    PERFORMER "05.ID"
    TITLE "ID"
    INDEX 01 30:22:00
    TRACK 06 AUDIO
    PERFORMER "06.ID"
    TITLE "ID"
    INDEX 01 36:53:00
    TRACK 07 AUDIO
    PERFORMER "07.Atmos"
    TITLE "Raumwelt Signal(hernan cattaneo edit of Original Mix)"
    INDEX 01 43:23:00


    Parte 4
    TRACK 01 AUDIO
    PERFORMER "01. Underworld"
    TITLE "Mo Move (hernan cattaneo re-edit)"
    INDEX 01702248704 00:00:00
    TRACK 02 AUDIO
    PERFORMER "02. Planet Funk"
    TITLE "switch (king unique dirty dub)"
    INDEX 01769435936 08:58:00
    TRACK 03 AUDIO
    PERFORMER "03. Luke Chable & Danny Bonnici"
    TITLE "Ride (King Unique)"
    INDEX 02037737226 15:52:00
    TRACK 04 AUDIO
    PERFORMER "04. Guy Gerber"
    TITLE "Stoppage Time (original mix)"
    INDEX 01701736033 22:00:00
    TRACK 05 AUDIO
    PERFORMER "05. Kevin Shields"
    TITLE "Are U Awake (Hernan Catanneo edit)"
    INDEX 01297040239 32:55:00

  2. #42
    Fecha de ingreso
    21 marzo 2006
    Ubicación
    Capital Federal
    Edad
    38
    Agradecimientos

    Re: Hernan Cattaneo @ Moonpark 17-09-04 (la famosa 2da parte)

    La verdad es que no me voy a cansar de agradecerle a todos los que hacen posible que yo vuelva a escuchar lo que en su momento CATY... me hizo deleitar !!! Gracias...Besos...

    Kerozene...ke paso con la 4ta parte...la sacaste ?? me falta el cierre... gracias...Besos...
    Última edición por COPITA; miércoles 24 mayo de 2006 a las 19:33 Razón: Los mensajes duplicados han sido unidos.
    Copita Airlines

  3. #43
    Fecha de ingreso
    25 octubre 2005
    Ubicación
    Capital Federal
    Edad
    36
    Agradecimientos

    Re: Hernan Cattaneo @ Moonpark 17-09-04 (la famosa 2da parte)

    Cita Iniciado por tukk Ver mensaje
    asi es todavia funcionan los links. yo estoy por la 4ta parte.



    jajajajaj EDIT: primera parte 1:04:16 un chabon hbalndo por telefono no se como se escucha diciendo:

    "es un quilombo esta tocando hernan cattaneo. No se es un quilombo esta tocando hernan cattaneo, termina de tocar y salgo!! no boludo!!! esperame que temrina de tocar y salgo!!!"

    jaj escuchenlo
    Jajaja seeee!!!

    Este thread va a resurgir siempre.... es la octava maravilla!!

  4. #44
    Fecha de ingreso
    23 mayo 2006
    Ubicación
    Veracruz
    Edad
    31
    Agradecimientos

    Re: Hernan Cattaneo @ Moonpark 17-09-04 (la famosa 2da parte)

    Parte 4 me da este mensaje -"This file has expired due to inactivity"

  5. #45
    Fecha de ingreso
    21 marzo 2006
    Ubicación
    Capital Federal
    Edad
    38
    Agradecimientos

    Re: Hernan Cattaneo @ Moonpark 17-09-04 (la famosa 2da parte)

    pleaseeeeeeeeeeeee
    Copita Airlines

  6. #46
    Fecha de ingreso
    10 agosto 2005
    Ubicación
    devoto
    Edad
    29
    Agradecimientos

    Re: Hernan Cattaneo @ Moonpark 17-09-04 (la famosa 2da parte)

    terrible set ya lo tenia hace mucho =)
    [FONT="Garamond"]/ . music is magic [/FONT]

Página 3 de 3 PrimerPrimer 1 2 3

Etiquetas para este tema

Información de tema

Usuarios viendo este tema

Actualmente hay 1 usuarios viendo este tema. (0 miembros y 1 visitantes)

Temas similares

  1. Pedido - Musica Hernan Cattaneo gran parte de su discografia
    Por lautivdp en el foro Seccion para Pedidos
    Respuestas: 4
    Último mensaje: miércoles 27 agosto de 2014, 20:46
  2. Pedido - Musica Hernan Cattaneo - Mixmaster Live 01.06.02 Parte 2
    Por Guido M. en el foro Archivo de Seccion para Pedidos
    Respuestas: 3
    Último mensaje: miércoles 04 julio de 2012, 13:19
  3. Pedido - Musica Hernan Cattaneo - Moonpark VI 17.09.2004 (Parte I)
    Por elunicotomas en el foro Seccion para Pedidos
    Respuestas: 6
    Último mensaje: martes 24 enero de 2012, 00:25
  4. Pedido - Mirror Hernan Cattaneo @ Pacha, Buenos Aires (94-12-14) (Parte 4)
    Por arenagab en el foro Archivo de Seccion para Pedidos
    Respuestas: 2
    Último mensaje: lunes 03 marzo de 2008, 20:26

Permisos de publicación

  • No puedes crear nuevos temas
  • No puedes responder temas
  • No puedes subir archivos adjuntos
  • No puedes editar tus mensajes
  •