set john digweed and sasha southfest..

-- Publicidad --

Aftercluv 7

Página 1 de 2 1 2 ÚltimoÚltimo
Resultados 1 al 20 de 34
  1. #1
    Fecha de ingreso
    21 febrero 2005
    Ubicación
    Buenos aires, Capital federal.
    Agradecimientos

    set john digweed and sasha southfest..

    cheee por favor, alguien lo tiene.. no lo puedo encontrar, solo fotos y lo que toco hernan.
    gracias.

  2. #2
    Fecha de ingreso
    03 agosto 2004
    Ubicación
    CabashiT
    Edad
    33
    Agradecimientos

    Re: set john digweed and sasha southfest..

    No existe ese set

    (solo lo deben tener en 2net, diggers y sasha)

  3. #3
    Fecha de ingreso
    31 julio 2005
    Ubicación
    Buenos Aires
    Agradecimientos

    Re: set john digweed and sasha southfest..

    ojala se pudiera conseguir, solo se saben los tracks q pasaron
    immerse.your.soul.in.l.o.v.e

  4. #4
    Fecha de ingreso
    26 septiembre 2004
    Ubicación
    Pilar
    Edad
    29
    Agradecimientos

    Re: set john digweed and sasha southfest..

    muchachos en la web de sasha esta disponible, en la seccion multimedia, la primera hora del set de Southfest, todavia no encontre la forma de "tomarlo prestado"
    y en la de digweed esta la 2da hora de dicho set, que dicho sea de paso, todavia no lo encontre..

    salu2!
    [FONT="Lucida Sans Unicode"]
    No music, no life!
    [/FONT]

  5. #5
    Fecha de ingreso
    16 enero 2005
    Ubicación
    Recolettta
    Agradecimientos

    Re: set john digweed and sasha southfest..

    Live from Southfest 2005, Buenos Aires, Argentina.
    This is the first hour of Sasha and John Digweed live from Southfest. Hour 2 is available on Johns website.

    High: http://djsasha.com:8000/content/Sash...nosAiresHi.pls

    Low: http://djsasha.com:8000/content/Sash...nosAiresLo.pls
    We Are Accidents Waiting To Happen* www.myspace.com/vuenos_ayres

  6. #6
    Fecha de ingreso
    02 junio 1998
    Ubicación
    Plus Ultra
    Agradecimientos

    Re: set john digweed and sasha southfest..

    Yo los tengo, mañana con suerte los subo y los tienen para bajar.

    Salutes

  7. #7
    Fecha de ingreso
    27 enero 2005
    Ubicación
    Ciudad Autónoma de Buenos Aires
    Edad
    28
    Agradecimientos

    Re: set john digweed and sasha southfest..

    tengo cattaneo y sahas @ moon

    si te sirve.... avisa
    "The opinions expressed herein are not necessarily those of my employer, not necessarily mine, and probably not necessary."

  8. #8
    Fecha de ingreso
    21 febrero 2005
    Ubicación
    Buenos aires, Capital federal.
    Agradecimientos

    Re: set john digweed and sasha southfest..

    Cita Iniciado por chApu
    tengo cattaneo y sahas @ moon

    si te sirve.... avisa
    dale men, por favorr... un grande

  9. #9
    Fecha de ingreso
    16 enero 2005
    Ubicación
    Recolettta
    Agradecimientos

    Re: set john digweed and sasha southfest..

    Cita Iniciado por COBRAws
    Yo los tengo, mañana con suerte los subo y los tienen para bajar.

    Salutes

    =) =) =).. mil Gracias COBRA !
    We Are Accidents Waiting To Happen* www.myspace.com/vuenos_ayres

  10. #10
    Fecha de ingreso
    08 julio 2005
    Ubicación
    Rosario
    Edad
    38
    Agradecimientos

    Re: set john digweed and sasha southfest..

    Ahhh muero por esos sets, por favor !!!!! Los quieroooooooooooooooo !!!!
    This is my church. This is where I heal my hurts. For tonight, God is a DJ

  11. #11
    Fecha de ingreso
    13 noviembre 2004
    Ubicación
    City of Blinding Lights
    Agradecimientos

    Re: set john digweed and sasha southfest..

    el set del SF??? yo lo tenía y lo borré. no es de lo mejor q he escuchado :S

    peor gustos son gustos, veo si lo puedo conseguir denuevo y lo subo

    The world is a tragedy to those who feel, but a comedy to those who think.


    NC OFFICIAL DESVIRTUATION TEAM
    [ BLOG ]

  12. #12
    Fecha de ingreso
    05 diciembre 2004
    Ubicación
    haedo
    Edad
    32
    Agradecimientos

    Re: set john digweed and sasha southfest..


  13. #13
    Fecha de ingreso
    11 enero 2005
    Ubicación
    Cap fed
    Edad
    28
    Agradecimientos

    Re: set john digweed and sasha southfest..

    eeea
    gracias maxe (Y)
    All is full of love

  14. #14
    Fecha de ingreso
    08 julio 2005
    Ubicación
    Rosario
    Edad
    38
    Agradecimientos

    Re: set john digweed and sasha southfest..

    Gracias Maxito.... Que emocion !!!! ajaja
    This is my church. This is where I heal my hurts. For tonight, God is a DJ

  15. #15
    Fecha de ingreso
    07 febrero 2006
    Agradecimientos

    Re: set john digweed and sasha southfest..

    no entiendo nadaaaaaa

  16. #16
    Fecha de ingreso
    03 noviembre 2004
    Ubicación
    Mendoza City
    Edad
    28
    Agradecimientos

    Re: set john digweed and sasha southfest..

    aca les dejo el cue

    TITLE "Southfest Buenos Aires 09.04.2005"
    PERFORMER "Sasha & John Digweed"
    FILE "Sasha and Digweed @ Southfest, BsAs 09.04.2005.mp3" MP3

    TRACK 01 AUDIO
    TITLE "Living in a video"
    PERFORMER "Stefano Greppi ft. Niconote"
    INDEX 01 00:00:00
    TRACK 02 AUDIO
    TITLE "Dub Horizon/w Jah"
    PERFORMER "Gabriel & Dresden w/ M.A.N.D.Y"
    INDEX 01 04:53:00
    TRACK 03 AUDIO
    TITLE "Behind The Wheel (DJ Kick's Electroclash Remix)"
    PERFORMER "Playgroup"
    INDEX 01 11:56:00
    TRACK 04 AUDIO
    TITLE "Lips"
    PERFORMER "Robert Babicz"
    INDEX 01 20:30:00
    TRACK 05 AUDIO
    TITLE "Je Regrette Everything (Superpitcher Mix)"
    PERFORMER "Dj Hell"
    INDEX 01 26:40:00
    TRACK 06 AUDIO
    TITLE "27/05/01"
    PERFORMER "Soul Mecanik"
    INDEX 01 33:48:00
    TRACK 07 AUDIO
    TITLE "Beta boy"
    PERFORMER "Trentmoller"
    INDEX 01 38:16:00
    TRACK 08 AUDIO
    TITLE "Come To Me (Club Mix)"
    PERFORMER "Holden & Thompson"
    INDEX 01 44:36:00
    TRACK 09 AUDIO
    TITLE "Again"
    PERFORMER "Wize"
    INDEX 01 56:20:00
    TRACK 10 AUDIO
    TITLE "Closer To Me (John Digweed & Nick Muir Dub)"
    PERFORMER "Chab"
    INDEX 01 63:00:00
    TRACK 11 AUDIO
    TITLE "Wait (I Know What You Need)"
    PERFORMER "Maskio"
    INDEX 01 68:42:00
    TRACK 12 AUDIO
    TITLE "Waves (King Unique Vocal Mix)"
    PERFORMER "Redanka"
    INDEX 01 75:44:00
    TRACK 13 AUDIO
    TITLE "Flight SU118 (S-Sential Remix)"
    PERFORMER "Soda Inc."
    INDEX 01 81:55:00
    TRACK 14 AUDIO
    TITLE "Sugar Lips (Kiki Mix)"
    PERFORMER "Coburn pres. Dumb Blonde"
    INDEX 01 88:00:00
    TRACK 15 AUDIO
    TITLE "Children"
    PERFORMER "MK Ultra Project"
    INDEX 01 95:33:00
    TRACK 16 AUDIO
    TITLE "Convoy"
    PERFORMER "Jark Prongo"
    INDEX 01 101:15:00
    TRACK 17 AUDIO
    TITLE "The Show (Fafa Monteco Remix)"
    PERFORMER "Konk West"
    INDEX 01 110:10:00
    TRACK 18 AUDIO
    TITLE "No Stoppin Love"
    PERFORMER "Ewan Pearson Vs. Mandy"
    INDEX 01 115:36:00
    TRACK 19 AUDIO
    TITLE "The Last Survivor (Buick Project Mix)"
    PERFORMER "Rulers Of The Deep"
    INDEX 01 121:31:00
    TRACK 20 AUDIO
    TITLE "Lift Me Up (Abe duque remix vs Superdiscount Rmx)"
    PERFORMER "Moby"
    INDEX 01 126:31:00
    TRACK 21 AUDIO
    TITLE "Stopage time (Tom Mangan Mix)"
    PERFORMER "Guy Gerber"
    INDEX 01 134:26:00
    TRACK 22 AUDIO
    TITLE "Nobody"
    PERFORMER "Omo"
    INDEX 01 141:45:00
    TRACK 23 AUDIO
    TITLE "Dirtbox"
    PERFORMER "Gutterstylz"
    INDEX 01 146:00:00
    TRACK 24 AUDIO
    TITLE "Shake /w Lift me up"
    PERFORMER "Sebastian Ingrosso"
    INDEX 01 152:00:00
    TRACK 25 AUDIO
    TITLE "The Slam"
    PERFORMER "Boombox"
    INDEX 01 158:56:00
    TRACK 26 AUDIO
    TITLE "Peace (Sebastian Ingrosso Mix)"
    PERFORMER "Tony Senghore"
    INDEX 01 165:13:00
    TRACK 27 AUDIO
    TITLE "Sick Strings"
    PERFORMER "The Jack Addicts, Mills & Joy"
    INDEX 01 171:09:00
    TRACK 28 AUDIO
    TITLE "Backdraf"
    PERFORMER "DJ Ralph & Jo"
    INDEX 01 177:57:00
    TRACK 29 AUDIO
    TITLE "Filthy Gorgeous (Paper Faces Dub Mix)"
    PERFORMER "Scissor Sisters"
    INDEX 01 183:08:00
    TRACK 30 AUDIO
    TITLE "Hugs'N'Kisses"
    PERFORMER "Criss Source"
    INDEX 01 190:57:00
    TRACK 31 AUDIO
    TITLE "Do What You Do (Trentmoller Mix)"
    PERFORMER "Yoshimoto"
    INDEX 01 193:39:00
    TRACK 32 AUDIO
    TITLE "Jumbo (Futureshock's Worlds Apart Vox)"
    PERFORMER "Underworld"
    INDEX 01 201:47:00
    TRACK 33 AUDIO
    TITLE "The Horn /w Tic Tac"
    PERFORMER "Matt Tolfrey & Craig Sylvester"
    INDEX 01 208:00:00
    TRACK 34 AUDIO
    TITLE "What You Are Waiting For? (Jacques Lu Cont's TWD Dub)"
    PERFORMER "Gwen Stefani"
    INDEX 01 213:57:00
    TRACK 35 AUDIO
    TITLE "I Feel Love (Danny Howells Edit)"
    PERFORMER "Donna Summer"
    INDEX 01 220:00:00
    TRACK 36 AUDIO
    TITLE "Keep It Down (Radio Slave Dub)"
    PERFORMER "Greens Keepers"
    INDEX 01 223:20:00
    TRACK 37 AUDIO
    TITLE "Cut For Life"
    PERFORMER "Leftfield"
    INDEX 01 231:00:00
    TRACK 38 AUDIO
    TITLE "Mr Brightside (Thin White Duke Mix)"
    PERFORMER "The Killers"
    INDEX 01 237:30:00
    TRACK 39 AUDIO
    TITLE "Believe"
    PERFORMER "Chemical Brothers"
    INDEX 01 246:40:00

    Despues les subo el set yo lo tengo completito y trackeado.

  17. #17
    Fecha de ingreso
    28 septiembre 2005
    Ubicación
    Bydgoszcz
    Edad
    43
    Agradecimientos

    Re: set john digweed and sasha southfest..

    PART1
    PART2

    to extract, You need complete download of 2 parts
    .... I love

  18. #18
    Fecha de ingreso
    07 septiembre 2005
    Ubicación
    Córdoba Capital
    Edad
    32
    Agradecimientos

    Re: set john digweed and sasha southfest..

    Cita Iniciado por jula Ver mensaje
    PART1
    PART2

    to extract, You need complete download of 2 parts

    thanks jula .... those files are HUGGGGGGGGEEEEEEEEEE!!!!!!!!

  19. #19
    Fecha de ingreso
    13 diciembre 2005
    Ubicación
    palermo
    Edad
    29
    Agradecimientos

    Re: set john digweed and sasha southfest..

    thanks man !!!
    progressive


    Friedrich Nietzsche

    Thc & 6M
    Crews

  20. #20
    Fecha de ingreso
    07 octubre 2005
    Ubicación
    Capital Federal
    Agradecimientos

    Re: set john digweed and sasha southfest..

    thks jula !!!!!

Página 1 de 2 1 2 ÚltimoÚltimo

Etiquetas para este tema

Información de tema

Usuarios viendo este tema

Actualmente hay 1 usuarios viendo este tema. (0 miembros y 1 visitantes)

Temas similares

  1. Progressive House Sasha & John Digweed @ Southfest BA 2005
    Por fede32cai en el foro SETs
    Respuestas: 29
    Último mensaje: martes 17 julio de 2012, 11:59
  2. Pedido - Mirror RECARGAR Progressive House: Sasha & John Digweed @ Southfest BA 2005
    Por nicocano en el foro Archivo de Seccion para Pedidos
    Respuestas: 1
    Último mensaje: domingo 01 julio de 2012, 14:07
  3. Pedido - Mirror John Digweed b2b Sasha @ SouthFest '05
    Por Nahue en el foro Seccion para Pedidos
    Respuestas: 3
    Último mensaje: miércoles 14 noviembre de 2007, 16:40
  4. Pedido - Musica southfest 2005 Sasha-Digweed
    Por ram3 en el foro Seccion para Pedidos
    Respuestas: 2
    Último mensaje: viernes 17 agosto de 2007, 16:25
  5. proyecto dvd sasha-digweed @ southfest 05
    Por atu en el foro Main Room
    Respuestas: 6
    Último mensaje: lunes 19 diciembre de 2005, 16:36

Permisos de publicación

  • No puedes crear nuevos temas
  • No puedes responder temas
  • No puedes subir archivos adjuntos
  • No puedes editar tus mensajes
  •