James Zabiela five hour mix
Página 1 de 2 1 2 ÚltimoÚltimo
Resultados 1 al 20 de 35
  1. #1
    Fecha de ingreso
    29 agosto 2005
    Ubicación
    Cp Fed Buenos Aires
    Edad
    38
    Agradecimientos

    James Zabiela five hour mix

    [FONT=Tahoma]
    JAMES ZABIELA 5Hs MIX @ PROTON RADIO
    [/FONT]

    James Zabiela vuelve a Proton Radio para promocionar su nuevo Tour mundial y su reciente trabajo UTILITIES EP y el MIX CD del sello Renaissance Recordings.

    Tuvimos la suerte suficiente de tener en nuestras manos un completamente nuevo Mix de 5Hs como asi tambien una entrevista tomada anteriormente este verano en una fiesta de Proton en Texas. James no esta dando permiso para compartir este Set con Uds. Disfrutenlo! Si te gustan sus remixes, por favor, Votalo en el DJ MAG!

    Hay que registrarse y se puede bajar...



    Downloads directos: por maxit0

    Part Zero

    Part1

    Part 2

    Part3

    Part 4

    JAMESZABIELAFOUR.2(5 mixes for promo use only)
    TRACKLISTING


    PARTZERO
    1. War & Peace Intro
    2. Radiohead 'Fitter happier'
    3. Jacob 'Faye'
    4. Swag 'Drum Hydraulics' (Silicone Scally's Re-Remixed Mix) (Tyrant)
    5. Plumbline '150E42' (MB Mix) (Hydrogen Jukebox)
    6. Robag Wruhme 'Hugendubel' (Wuzzelbud KK)
    7. Vector Lovers 'Boulevard' (Soma)
    8. Moby 'Mulholland' (Mute)
    9. Loco Dice 'Minima Brasiliera' (Ovum)
    10. Phonique 'For The Time Being' feat. Erlend Oye (Original Mix) (Dessous)
    11. Morgan Page 'Landline' (Hearing Aid)
    12. Kaskade 'Steppin Out' (Greenskeepers Remix) (OM)
    13. JDS 'Zeon' (TCR)
    14. Banderas 'This Is Your Life' (12''inch)
    15. Eternal Sunshine of the Spotless Mind Score and Samples
    16. Röyksopp 'Dead To The World' (Wall Of Sound)

    PART1
    1. Peace Division Intro
    2. Will Saul 'Copicat' (Simple)
    3. Monoo and Francois A 'Traffic' (Buzzin' Fly)
    4. Juan Maclean 'Give Me Every Little Thing' (Dub) (DFA)
    5. M83 'Teen Against' (Luciano Mix)
    6. John Tejada 'Alone With You' (Featuring Carl Finlow) (Logic Memory Center)
    7. John Tejada & Arian Leiste 'Triad Jack' (Pallette)
    8. Jussi-Pekka 'Stereo Interleaved' (Out Of Orbit)
    9. Marc Romboy 'Don't Stop!' (Systematic)
    10. Weekend World 'Acid Drop' (CDR)
    11. The Flying Doctors 'We Make Contact' (Oliver Lieb rmx) (Kindred Sounds)
    12. DJ Hal 'Rocking With Conviction' (CDR)
    13. Kid Blue 'You've Changed' (CDR)
    14. James Talk & Dave Robertson 'Unknown' (CDR)
    15. Depeche Mode 'Precious' (Misc. Full Vocal Mix) (Mute )

    PART2
    1. Travelling Technology Intro
    2. Habersham 'Dryspell' (CDR)
    3. Kriece 'The Glue that Binds' (CDR)
    4. Stretch n' Vern 'Beats and Bones' (James Talk Remix) (TBC)
    5. PJ Davy 'Bolly Fella' (Renaissance)
    6. Dave Robertson 'Mon Pote' (CDR)
    7. Mos & Plastic Vision 'Toyz In Panic' (Rob Mooney Remix)
    8. Co-Fusion 'SVD' (Ovum)
    9. Undisclosed 'TBA' (CDR)
    10. Danny Nubreed 'Festa' (CDR)
    11. Unsavoury Products 'Bitten By The Black Dog' (Hydrogen Jukebox)
    12. Jay Tripwire' Electricity' (Funk'D)
    13. Adrian Forcinit 'Class Of 94' A3' (Syra)
    14. LCD Soundsystem 'Tribulations' (Tiga's Out of The Closet Mix) (DFA)

    PART3
    1. Intro 'FX STRATEGY'
    2. Kinishi (Funk Da Void Intro Edit)
    3. Skin & Bone 'Won't Ever Fade' (Paul Woolford Remix)
    4. Quadrophonic 'The Sound' (Habersham Remix Zedit) (CDR)
    5. Mazi & Joshua Collins 'Russian Radio' (Original Mix) [friknfrak]
    6. Martin C 'In One Out The Other'
    7. Precision Cuts 'Forever'
    8. 'Renegades Remix 2005' (Inflight Entertainment)
    9. future Funk Squad 'Towards The Sun' (Evil 9 Remix) (CDR)
    10. Spacefunk (Danny Howells Dalek funk edit) (CDR)
    11. Liebe Ist Coo 'Wolke 7' (Agoria's Ghetto Retro Mix)
    12. ali Perc 'Moose and Squirrel' (Perc's Ninja Turtle Remix)
    13. John Dahlback 'Who's Your Daddy' (Mutekki)
    14. KLF at the Rave (Jay Boy Z's Booty)
    15. Aquanauts 'Cruiseship Killa' (Underground Resistance)
    16, Analord 'Crying In Your Face' (AFX)

    PART4
    1. Intro 'Wanderers in the 4th Dimension'
    2. Egoexpress 'Knartz IV' (Mute)
    3. Style Rockets III
    4. Jon Gurd & Rob Mooney 'Mac Love' (Bass For Breakfast)
    5. John Dahlback & Steffan Linzati 'Inside' (Pickadoll )
    6. Luke Dzierzek 'Echo' (Silver Planet)
    7. Revolve 'Countermeasures' (CDR)
    8. Ellen Allien 'Down' (Bpitchcontrol)
    9. Mosca 'Up Town With The Krafty Casuals Looking For Bother' (Acid Hooligan)
    10. Slam 'This World' (Wighnomy Bros & Robag Wruhme Dub) (Soma)
    11. Anthony Rother '10000 Dancer' (Data Germany)
    12 & 13.. Ils Vs Depeche Mode 'Enjoy The Silence (Ewan Pearson Mix) / Over My Head' (A Jay Boy Z Mash Up) (Distinctive Breaks / Mute)

  2. #2
    Fecha de ingreso
    23 diciembre 2004
    Ubicación
    El mundo del nunca jamas
    Edad
    31
    Agradecimientos

    Re: James Zabiela five hour mix

    Yo lo vi ayer en la Proton , muy lindo como esta puesto el link. Pero cuando ingrese, lei que habia que pagar para bajarlo. SI me registro lo puedo bajar gratis?

  3. #3
    Fecha de ingreso
    29 agosto 2005
    Ubicación
    Cp Fed Buenos Aires
    Edad
    38
    Agradecimientos

    Re: James Zabiela five hour mix

    Cita Iniciado por Dios
    Yo lo vi ayer en la Proton , muy lindo como esta puesto el link. Pero cuando ingrese, lei que habia que pagar para bajarlo. SI me registro lo puedo bajar gratis?
    Satamente, lo estoy bajando ahora directo y en mp3. Solo te pide nick, mail y pass.

  4. #4
    Fecha de ingreso
    26 marzo 2005
    Ubicación
    Banfield
    Edad
    36
    Agradecimientos

    Arrebaaa Re: James Zabiela five hour mix

    [font=Courier New]Si alguien lo sube a Megaupload, nos haría un gran favor [/font]
    [FONT=Courier New]Pablo...[/FONT]
    [FONT=Courier New]Euphoria Party Staff[/FONT]

  5. #5
    Fecha de ingreso
    04 agosto 2004
    Ubicación
    Capital Federal
    Edad
    36
    Agradecimientos

    Re: James Zabiela five hour mix

    Gracias por el aporte, como indican aca, preferimos que los downloads sean de descarga Directa o un Torrent sin registracion de ninguna indole.

    Asi tambien, en la gran mayoria de threads que en este foro encontras, vas a ver que se toman el trabajo de darle formato a los mensajes y tambien dar una descripcion en castellano. Nadie prohibe que uses algo de otra pagina, pero no lo hagas todo en ingles.

    Gracias, saludos.

  6. #6
    Fecha de ingreso
    05 diciembre 2004
    Ubicación
    haedo
    Edad
    32
    Agradecimientos

    Re: James Zabiela five hour mix


  7. #7
    Fecha de ingreso
    19 septiembre 1997
    Ubicación
    Ciudad Autónoma de Buenos Aires
    Agradecimientos

    Re: James Zabiela five hour mix

    Cita Iniciado por Maxit0
    JAMESZABIELAFOUR.2(5 mixes for promo use only)

    TRACKLISTING

    PARTZERO
    1. War & Peace Intro
    2. Radiohead 'Fitter happier'
    3. Jacob 'Faye'
    4. Swag 'Drum Hydraulics' (Silicone Scally's Re-Remixed Mix) (Tyrant)
    5. Plumbline '150E42' (MB Mix) (Hydrogen Jukebox)
    6. Robag Wruhme 'Hugendubel' (Wuzzelbud KK)
    7. Vector Lovers 'Boulevard' (Soma)
    8. Moby 'Mulholland' (Mute)
    9. Loco Dice 'Minima Brasiliera' (Ovum)
    10. Phonique 'For The Time Being' feat. Erlend Oye (Original Mix) (Dessous)
    11. Morgan Page 'Landline' (Hearing Aid)
    12. Kaskade 'Steppin Out' (Greenskeepers Remix) (OM)
    13. JDS 'Zeon' (TCR)
    14. Banderas 'This Is Your Life' (12''inch)
    15. Eternal Sunshine of the Spotless Mind Score and Samples
    16. Röyksopp 'Dead To The World' (Wall Of Sound)

    PART1
    1. Peace Division Intro
    2. Will Saul 'Copicat' (Simple)
    3. Monoo and Francois A 'Traffic' (Buzzin' Fly)
    4. Juan Maclean 'Give Me Every Little Thing' (Dub) (DFA)
    5. M83 'Teen Against' (Luciano Mix)
    6. John Tejada 'Alone With You' (Featuring Carl Finlow) (Logic Memory Center)
    7. John Tejada & Arian Leiste 'Triad Jack' (Pallette)
    8. Jussi-Pekka 'Stereo Interleaved' (Out Of Orbit)
    9. Marc Romboy 'Don't Stop!' (Systematic)
    10. Weekend World 'Acid Drop' (CDR)
    11. The Flying Doctors 'We Make Contact' (Oliver Lieb rmx) (Kindred Sounds)
    12. DJ Hal 'Rocking With Conviction' (CDR)
    13. Kid Blue 'You've Changed' (CDR)
    14. James Talk & Dave Robertson 'Unknown' (CDR)
    15. Depeche Mode 'Precious' (Misc. Full Vocal Mix) (Mute )

    PART2
    1. Travelling Technology Intro
    2. Habersham 'Dryspell' (CDR)
    3. Kriece 'The Glue that Binds' (CDR)
    4. Stretch n' Vern 'Beats and Bones' (James Talk Remix) (TBC)
    5. PJ Davy 'Bolly Fella' (Renaissance)
    6. Dave Robertson 'Mon Pote' (CDR)
    7. Mos & Plastic Vision 'Toyz In Panic' (Rob Mooney Remix)
    8. Co-Fusion 'SVD' (Ovum)
    9. Undisclosed 'TBA' (CDR)
    10. Danny Nubreed 'Festa' (CDR)
    11. Unsavoury Products 'Bitten By The Black Dog' (Hydrogen Jukebox)
    12. Jay Tripwire' Electricity' (Funk'D)
    13. Adrian Forcinit 'Class Of 94' A3' (Syra)
    14. LCD Soundsystem 'Tribulations' (Tiga's Out of The Closet Mix) (DFA)

    PART3
    1. Intro 'FX STRATEGY'
    2. Kinishi (Funk Da Void Intro Edit)
    3. Skin & Bone 'Won't Ever Fade' (Paul Woolford Remix)
    4. Quadrophonic 'The Sound' (Habersham Remix Zedit) (CDR)
    5. Mazi & Joshua Collins 'Russian Radio' (Original Mix) [friknfrak]
    6. Martin C 'In One Out The Other'
    7. Precision Cuts 'Forever'
    8. 'Renegades Remix 2005' (Inflight Entertainment)
    9. future Funk Squad 'Towards The Sun' (Evil 9 Remix) (CDR)
    10. Spacefunk (Danny Howells Dalek funk edit) (CDR)
    11. Liebe Ist Coo 'Wolke 7' (Agoria's Ghetto Retro Mix)
    12. ali Perc 'Moose and Squirrel' (Perc's Ninja Turtle Remix)
    13. John Dahlback 'Who's Your Daddy' (Mutekki)
    14. KLF at the Rave (Jay Boy Z's Booty)
    15. Aquanauts 'Cruiseship Killa' (Underground Resistance)
    16, Analord 'Crying In Your Face' (AFX)

    PART4
    1. Intro 'Wanderers in the 4th Dimension'
    2. Egoexpress 'Knartz IV' (Mute)
    3. Style Rockets III
    4. Jon Gurd & Rob Mooney 'Mac Love' (Bass For Breakfast)
    5. John Dahlback & Steffan Linzati 'Inside' (Pickadoll )
    6. Luke Dzierzek 'Echo' (Silver Planet)
    7. Revolve 'Countermeasures' (CDR)
    8. Ellen Allien 'Down' (Bpitchcontrol)
    9. Mosca 'Up Town With The Krafty Casuals Looking For Bother' (Acid Hooligan)
    10. Slam 'This World' (Wighnomy Bros & Robag Wruhme Dub) (Soma)
    11. Anthony Rother '10000 Dancer' (Data Germany)
    12 & 13.. Ils Vs Depeche Mode 'Enjoy The Silence (Ewan Pearson Mix) / Over My Head' (A Jay Boy Z Mash Up) (Distinctive Breaks / Mute)

    ahi actualicé el primer mensaje
    .:: Kero ::.
    Por consultas del foro, dirigirse a Julian

  8. #8
    Fecha de ingreso
    05 diciembre 2004
    Ubicación
    haedo
    Edad
    32
    Agradecimientos

    Re: James Zabiela five hour mix

    TITLE "James Zabiela_Four 2 - Part Zero (2005)"
    PERFORMER "James Zabiela"
    FILE "addyourmp3filenamehere.mp3" MP3
    TRACK 01 AUDIO
    TITLE "War & Peace Intro"
    INDEX 01 00:00:00
    TRACK 02 AUDIO
    TITLE "Radiohead - Fitter Happier"
    INDEX 01 00:57:00
    TRACK 03 AUDIO
    TITLE "Jacob - Faye"
    INDEX 01 02:49:00
    TRACK 04 AUDIO
    TITLE "Swag - Drum Hydraulics (Silicone Scally's Re-Remixed Mix) (Tyrant)"
    INDEX 01 06:02:00
    TRACK 05 AUDIO
    TITLE "Plumbline '150E42' (MB Mix) (Hydrogen Jukebox)"
    INDEX 01 12:24:00
    TRACK 06 AUDIO
    TITLE "Robag Wruhme - Hugendubel (Wuzzelbud KK)"
    INDEX 01 17:21:00
    TRACK 07 AUDIO
    TITLE "Vector Lovers - Boulevard (Soma)"
    INDEX 01 27:24:00
    TRACK 08 AUDIO
    TITLE "Moby - Mulholland (Mute)"
    INDEX 01 28:57:00
    TRACK 09 AUDIO
    TITLE "Loco Dice - Minima Brasiliera (Ovum)"
    INDEX 01 33:22:00
    TRACK 10 AUDIO
    TITLE "Phonique - For The Time Being feat. Erlend Oye (Original Mix) (Dessous)"
    INDEX 01 38:03:00
    TRACK 11 AUDIO
    TITLE "Morgan Page - Landline (Hearing Aid)"
    INDEX 01 43:00:00
    TRACK 12 AUDIO
    TITLE "Kaskade - Steppin Out (Greenskeepers RMX) (OM)"
    INDEX 01 49:06:00
    TRACK 13 AUDIO
    TITLE "JDS - Zeon (TCR)"
    INDEX 01 52:28:00
    TRACK 14 AUDIO
    TITLE "Banderas - This Is Your Life (12'' Inch)"
    INDEX 01 55:57:00
    TRACK 15 AUDIO
    TITLE "Eternal Sunshine of the Spotless Mind (Score & Samples)"
    INDEX 01 60:12:00
    TRACK 16 AUDIO
    TITLE "Röyksopp - Dead To The World (Wall of Sound)"
    INDEX 01 61:23:00

    TITLE "James Zabiela_Four 2 - Part One (2005)"
    PERFORMER "James Zabiela"
    FILE "addyourmp3filenamehere.mp3" MP3
    TRACK 01 AUDIO
    TITLE "Peace Division Intro"
    INDEX 01 00:00:00
    TRACK 02 AUDIO
    TITLE "Will Saul - Copicat (Simple)"
    INDEX 01 00:47:00
    TRACK 03 AUDIO
    TITLE "Monoo & Francois A - Traffic (Buzzin' Fly)"
    INDEX 01 04:49:00
    TRACK 04 AUDIO
    TITLE "Juan Maclean - Give Me Every Little Thing (Dub) (DFA)"
    INDEX 01 10:31:00
    TRACK 05 AUDIO
    TITLE "M83 - Teen Against (Luciano Mix)"
    INDEX 01 17:34:00
    TRACK 06 AUDIO
    TITLE "John Tejada - Alone With You feat. Carl Finlow (Logic Memory Center)"
    INDEX 01 23:28:00
    TRACK 07 AUDIO
    TITLE "John Tejada & Arian Leiste - Triad Jack (Pallette)"
    INDEX 01 29:16:00
    TRACK 08 AUDIO
    TITLE "Jussi-Pekka - Stereo Interleaved (Out of Orbit)"
    INDEX 01 34:48:00
    TRACK 09 AUDIO
    TITLE "Marc Romboy - Don't Stop! (Systematic)"
    INDEX 01 40:40:00
    TRACK 10 AUDIO
    TITLE "Weekend World - Acid Drop (CDR)"
    INDEX 01 45:01:00
    TRACK 11 AUDIO
    TITLE "The Flying Doctors - We Make Contact (Oliver Lieb RMX) (Kindred Sounds)"
    INDEX 01 49:12:00
    TRACK 12 AUDIO
    TITLE "DJ Hal - Rocking With Conviction (CDR)"
    INDEX 01 53:12:00
    TRACK 13 AUDIO
    TITLE "Kid Blue - You've Changed (CDR)"
    INDEX 01 57:47:00
    TRACK 14 AUDIO
    TITLE "James Talk & Dave Robertson - Unknown (CDR)"
    INDEX 01 63:58:00
    TRACK 15 AUDIO
    TITLE "Depeche Mode - Precious (Misc Full Vocal Mix) (Mute)"
    INDEX 01 67:47:00

    TITLE "James Zabiela_Four 2 - Part Two (2005)"
    PERFORMER "James Zabiela"
    FILE "addyourmp3filenamehere.mp3" MP3
    TRACK 01 AUDIO
    TITLE "Travelling Technology Intro"
    INDEX 01 00:00:00
    TRACK 02 AUDIO
    TITLE "Habersham - Dryspell (CDR)"
    INDEX 01 00:30:00
    TRACK 03 AUDIO
    TITLE "Kriece - The Glue That Binds (CDR)"
    INDEX 01 08:22:00
    TRACK 04 AUDIO
    TITLE "Stretch n' Vern - Beats & Bones (James Talk RMX) (TBC)"
    INDEX 01 13:46:00
    TRACK 05 AUDIO
    TITLE "PJ Davy - Bolly Fella (Renaissance)"
    INDEX 01 18:17:00
    TRACK 06 AUDIO
    TITLE "Dave Robertson - Mon Pote (CDR)"
    INDEX 01 23:56:00
    TRACK 07 AUDIO
    TITLE "Mos & Plastic Vision - Toyz In Panic (Rob Mooney RMX)"
    INDEX 01 28:56:00
    TRACK 08 AUDIO
    TITLE "Co-Fusion - SVD (Ovum)"
    INDEX 01 34:57:00
    TRACK 09 AUDIO
    TITLE "Unknown - TBA (CDR)"
    INDEX 01 38:12:00
    TRACK 10 AUDIO
    TITLE "Danny Nubreed - Festa (CDR)"
    INDEX 01 42:03:00
    TRACK 11 AUDIO
    TITLE "Unsavoury Products - Bitten By The Black Dog (Hydrogen Jukebox)"
    INDEX 01 48:59:00
    TRACK 12 AUDIO
    TITLE "Jay Tripwire - Electricity (Funk'D)"
    INDEX 01 52:32:00
    TRACK 13 AUDIO
    TITLE "Adrian Forcinit - Class of 94' A3 (Syra)"
    INDEX 01 58:02:00
    TRACK 14 AUDIO
    TITLE "LCD Soundsystem - Tribulations (Tiga's Out of The Closet Mix) (DFA)"
    INDEX 01 60:42:00

    TITLE "James Zabiela_Four 2 - Part Three (2005)"
    PERFORMER "James Zabiela"
    FILE "addyourmp3filenamehere.mp3" MP3
    TRACK 01 AUDIO
    TITLE "FX Strategy Intro"
    INDEX 01 00:00:00
    TRACK 02 AUDIO
    TITLE "Kinishi Intro (Funk D'Void Edit)"
    INDEX 01 00:08:00
    TRACK 03 AUDIO
    TITLE "Skin & Bone - Won't Ever Fade (Paul Woolford RMX)"
    INDEX 01 04:48:00
    TRACK 04 AUDIO
    TITLE "Quadrophonic - The Sound (Habersham RMX Zedit) (CDR)"
    INDEX 01 10:29:00
    TRACK 05 AUDIO
    TITLE "Mazi & Joshua Collins - Russian Radio (Original Mix) (Frik n' Frak)"
    INDEX 01 14:33:00
    TRACK 06 AUDIO
    TITLE "Martin C - In One Out The Other"
    INDEX 01 19:45:00
    TRACK 07 AUDIO
    TITLE "Precision Cuts - Forever"
    INDEX 01 24:10:00
    TRACK 08 AUDIO
    TITLE "Renegades RMX 2005 (Inflight Entertainment)"
    INDEX 01 27:52:00
    TRACK 09 AUDIO
    TITLE "Future Funk Squad - Towards The Sun (Evil 9 RMX) (CDR)"
    INDEX 01 35:22:00
    TRACK 10 AUDIO
    TITLE "Spacefunk (Danny Howells Dalek Funk Edit) (CDR)"
    INDEX 01 40:38:00
    TRACK 11 AUDIO
    TITLE "Liebe Ist Coo - Wolke 7 (Agoria's Ghetto Retro Mix)"
    INDEX 01 45:47:00
    TRACK 12 AUDIO
    TITLE "Ali Perc - Moose & Squirrel (Perc's Ninja Turtle RMX)"
    INDEX 01 49:49:00
    TRACK 13 AUDIO
    TITLE "John Dahlback - Who's Your Daddy? (Mutekki)"
    INDEX 01 56:26:00
    TRACK 14 AUDIO
    TITLE "KLF - At The Rave (Jay Boy Z's Booty)"
    INDEX 01 59:21:00
    TRACK 15 AUDIO
    TITLE "Aquanauts - Cruiseship Killa (Underground Resistance)"
    INDEX 01 65:14:00
    TRACK 16 AUDIO
    TITLE "Analord - Crying In Your Face (AFX)"
    INDEX 01 69:11:00

    TITLE "James Zabiela_Four 2 - Part Four (2005)"
    PERFORMER "James Zabiela"
    FILE "addyourmp3filenamehere.mp3" MP3
    TRACK 01 AUDIO
    TITLE "Wanderers In The 4th Dimension Intro"
    INDEX 01 00:00:00
    TRACK 02 AUDIO
    TITLE "Egoexpress - Knartz IV (Mute)"
    INDEX 01 00:52:00
    TRACK 03 AUDIO
    TITLE "Style Rockets - III"
    INDEX 01 06:25:00
    TRACK 04 AUDIO
    TITLE "Jon Gurd & Rob Mooney - Mac Love (Bass For Breakfast)"
    INDEX 01 11:34:00
    TRACK 05 AUDIO
    TITLE "John Dahlback & Steffan Linzati - Inside (Pickadoll)"
    INDEX 01 16:29:00
    TRACK 06 AUDIO
    TITLE "Luke Dzierzek - Echo (Silver Planet)"
    INDEX 01 21:14:00
    TRACK 07 AUDIO
    TITLE "Revolve - Countermeasures (CDR)"
    INDEX 01 29:32:00
    TRACK 08 AUDIO
    TITLE "Ellen Allien - Down (Bpitchcontrol)"
    INDEX 01 33:58:00
    TRACK 09 AUDIO
    TITLE "Mosca - Up Town With The Krafty Casuals Looking For Bother (Acid Hooligan)"
    INDEX 01 37:48:00
    TRACK 10 AUDIO
    TITLE "Slam - This World (Wighnomy Bros & Robag Wruhme Dub) (Soma)"
    INDEX 01 41:28:00
    TRACK 11 AUDIO
    TITLE "Anthony Rother - 10,000 Dancer (Data Germany)"
    INDEX 01 48:01:00
    TRACK 12 AUDIO
    TITLE "Ils - Over My Head / Depeche Mode - Enjoy The Silence (Ewan Pearson Mix)"
    INDEX 01 55:39:00

    aca los cue =) (nose como ponerlos en un quote ) hacelo vos eso kero :P

  9. #9
    Fecha de ingreso
    19 septiembre 1997
    Ubicación
    Ciudad Autónoma de Buenos Aires
    Agradecimientos

    Re: James Zabiela five hour mix

    gracias!!!!!!
    .:: Kero ::.
    Por consultas del foro, dirigirse a Julian

  10. #10
    Fecha de ingreso
    20 septiembre 2004
    Ubicación
    Posadas
    Edad
    28
    Agradecimientos

    Re: James Zabiela five hour mix

    Muy buenos sets. Mucho más tech y no tanto pobressive.
    Gracias Maxit0 por postear los CUE!

  11. #11
    Fecha de ingreso
    23 diciembre 2004
    Ubicación
    El mundo del nunca jamas
    Edad
    31
    Agradecimientos

    Re: James Zabiela five hour mix

    La parte zero empieza con una intro de MARILYN MANSON usa en su disco Anticristo Superstar.. Muy leendooooooooooooooooooooo

  12. #12
    Fecha de ingreso
    11 agosto 2004
    Ubicación
    Palermo
    Edad
    28
    Agradecimientos

    Re: James Zabiela five hour mix

    la parte 0, los primeros 10 minutos, son excelentes. la mezcla de
    TRACK 01 AUDIO
    TITLE "War & Peace Intro"
    INDEX 01 00:00:00
    TRACK 02 AUDIO
    TITLE "Radiohead - Fitter Happier"
    INDEX 01 00:57:00
    TRACK 03 AUDIO
    TITLE "Jacob - Faye"
    INDEX 01 02:49:00
    TRACK 04 AUDIO
    TITLE "Swag - Drum Hydraulics (Silicone Scally's Re-Remixed Mix) (Tyrant)"
    INDEX 01 06:02:00

    esas mezclas son preciosas. me encanta como toca zabiela, cuando termine de escucharlo todo todo me explayo un poco mas

  13. #13
    Fecha de ingreso
    05 diciembre 2004
    Ubicación
    buenos aires
    Edad
    28
    Agradecimientos

    Re: James Zabiela five hour mix

    porque sera q mi maldita pc jamas me engancha los linksssss grrrrrr!!!si alguien ya lso tiene bajados agradeceria q me los pase =(
    [FONT=Franklin Gothic Medium] DoNt kIlL ThE MuSic[/FONT]

  14. #14
    Fecha de ingreso
    11 agosto 2004
    Ubicación
    Palermo
    Edad
    28
    Agradecimientos

  15. #15
    Fecha de ingreso
    23 diciembre 2004
    Ubicación
    El mundo del nunca jamas
    Edad
    31
    Agradecimientos

    Re: James Zabiela five hour mix

    Cita Iniciado por digitaaal!
    la tenes? me fascino.
    Si la tengo.. o sea el set zero y tmb el disco de marilyn donde esta.. despues lo subo a megauploads---

  16. #16
    Fecha de ingreso
    02 julio 2005
    Ubicación
    Fox River
    Edad
    37
    Agradecimientos

    Re: James Zabiela five hour mix

    se agradece...
    Lost in a Melody

    John Digweed @ Moonpark XII



  17. #17
    Fecha de ingreso
    08 julio 2005
    Ubicación
    Rosario
    Edad
    38
    Agradecimientos

    Re: James Zabiela five hour mix

    Muchas gracias gente...
    Salu2
    This is my church. This is where I heal my hurts. For tonight, God is a DJ

  18. #18
    Fecha de ingreso
    13 noviembre 2004
    Ubicación
    City of Blinding Lights
    Agradecimientos

    Re: James Zabiela five hour mix

    graxxxx bajandooooo...

    The world is a tragedy to those who feel, but a comedy to those who think.


    NC OFFICIAL DESVIRTUATION TEAM
    [ BLOG ]

  19. Re: James Zabiela five hour mix

    lo estoy bajando despues comento que me parecio, saludos y graxias!!!
    [font=Century Gothic][email protected][/font] [font=Century Gothic][email protected][/font] [font=Century Gothic]Life [/font]
    ∫ōĿθ ľã MũŝĺĶ ŚếĻЗĈť@ Đ ľÃ Ęĺẹ†гǾמÍķ mэ ĤÃČề õŀv¡ĐÄř Ďểĺ Đθľõя Θ MĚ ĆĂÛŞáŜ!

  20. #20
    Fecha de ingreso
    04 agosto 2004
    Ubicación
    Belgrano
    Edad
    36
    Agradecimientos

    Re: James Zabiela five hour mix

    excelente che!

    Gracias x el aporteeeeeeeee
    [FONT=Arial Black]::: contact:::
    [/FONT]
    [email protected]

Página 1 de 2 1 2 ÚltimoÚltimo

Etiquetas para este tema

Información de tema

Usuarios viendo este tema

Actualmente hay 1 usuarios viendo este tema. (0 miembros y 1 visitantes)

Temas similares

  1. Get out: James Zabiela
    Por niniasweet en el foro Discusiones sobre DJs & Sellos
    Respuestas: 0
    Último mensaje: martes 17 marzo de 2009, 13:28
  2. Pedido - Mirror James Zabiela Five Hour Mix
    Por Traffic_ en el foro Seccion para Pedidos
    Respuestas: 3
    Último mensaje: lunes 28 enero de 2008, 17:50
  3. Pedido - Musica james zabiela
    Por el_ale en el foro Seccion para Pedidos
    Respuestas: 8
    Último mensaje: viernes 23 marzo de 2007, 23:46

Permisos de publicación

  • No puedes crear nuevos temas
  • No puedes responder temas
  • No puedes subir archivos adjuntos
  • No puedes editar tus mensajes
  •