Armin Van Buuren - ASOT 175 Tracklist/CUE
Resultados 1 al 5 de 5
  1. #1
    Fecha de ingreso
    02 junio 1998
    Ubicación
    Plus Ultra
    Agradecimientos

    Armin Van Buuren - ASOT 175 Tracklist/CUE

    Armin Van Buuren
    ASOT 175


    Tracklist: Set 01

    Código:
    TITLE "ASOT 175-1 - Live at ID&T - 18.Nov.2004 - COBRAws"
    PERFORMER "Armin Van Buuren"
    FILE "ASOT 175-1 - Armin Van Buuren - Live at ID-T Radio -18-Nov-04_TM.mp3" MP3
      TRACK 01 AUDIO
        TITLE "ASOT 175"
        PERFORMER "00 - intro"
        INDEX 01 00:00:00
      TRACK 02 AUDIO
        TITLE "Velocity (Original Mix)"
        PERFORMER "01 - Antidote"
        INDEX 0538970672 00:46:30
      TRACK 03 AUDIO
        TITLE "Adamedge"
        PERFORMER "02 - Nathan Fake"
        INDEX 0892416032 08:28:00
      TRACK 04 AUDIO
        TITLE "Find (Andy Moor Remix)"
        PERFORMER "03 - Ridgewalkers featuring El"
        INDEX 01330008645 14:25:00
      TRACK 05 AUDIO
        TITLE "I Found You (Original Mix) "
        PERFORMER "04 - Interstate"
        INDEX 01867391520 21:02:00
      TRACK 06 AUDIO
        TITLE "Nothing Matters (Original Mix) "
        PERFORMER "05 - Vadim Zhukov"
        INDEX 0875968050 26:44:00
      TRACK 07 AUDIO
        TITLE "Crack Down"
        PERFORMER "06 - Remy & Roland Klinkenberg"
        INDEX 01719099239 31:23:00
      TRACK 08 AUDIO
        TITLE "Electraglide (Askew's Stripped Down Club Mix) "
        PERFORMER "07 - John Askew"
        INDEX 0808464432 35:35:00
      TRACK 09 AUDIO
        TITLE "Wavy Gravy (Terry Bones Remix)"
        PERFORMER "08 - Sasha"
        INDEX 01717531500 39:40:00
      TRACK 10 AUDIO
        TITLE "Surrender (Original Mix)"
        PERFORMER "09 - Above & Beyond presents Tranquility Base"
        INDEX 01717766669 46:54:00
      TRACK 11 AUDIO
        TITLE "Twixt 2004"
        PERFORMER "10 - Plastic Boy"
        INDEX 0578250091 51:41:00
    CD2:
    Código:
    TITLE "ASOT 175-2 - Live at ID&T - 18.Nov.2004 - COBRAws"
    PERFORMER "Armin Van Buuren"
    FILE "ASOT 175-2 - Armin Van Buuren - Live at ID-T Radio -18-Nov-04_TM.mp3" MP3
      TRACK 01 AUDIO
        TITLE "CQ"
        PERFORMER "01 - Enmass"
        INDEX 0538970672 00:00:00
      TRACK 02 AUDIO
        TITLE "Jump The Next Train (Kyau vs Albert Remix)"
        PERFORMER "02 - Young Parisians featuring Ben Lost"
        INDEX 01 05:07:30
      TRACK 03 AUDIO
        TITLE "Voller Sterne (Super 8 Remix)"
        PERFORMER "03 - Mirco de Gova"
        INDEX 0538970672 13:08:00
      TRACK 04 AUDIO
        TITLE "Communication Part 3 "
        PERFORMER "04 - Armin van Buuren"
        INDEX 0892416032 17:17:00
      TRACK 05 AUDIO
        TITLE "Fancy Fair 2004"
        PERFORMER "05 - Katana"
        INDEX 0875968050 23:51:00
      TRACK 06 AUDIO
        TITLE "Pound"
        PERFORMER "06 - Armin vs M.I.K.E. presents Electric Movement"
        INDEX 01719099239 29:51:50
      TRACK 07 AUDIO
        TITLE "Synaesthesia (Bobina Megadrive 2004 Remix)"
        PERFORMER "07 - The Thrillseekers"
        INDEX 01 32:40:00
      TRACK 08 AUDIO
        TITLE "Synaesthesia 2004 (Ferry Corsten Remix) "
        PERFORMER "08 - The Thrillseekers"
        INDEX 01 38:08:00
      TRACK 09 AUDIO
        TITLE "Cosmic String (Original Mix)"
        PERFORMER "09 - Marcos"
        INDEX 01717531500 45:09:00
      TRACK 10 AUDIO
        TITLE "Children Of The Sun"
        PERFORMER "10 - Robert Gitelman"
        INDEX 01 51:53:00

  2. #2
    Fecha de ingreso
    11 agosto 2004
    Ubicación
    Palermo
    Edad
    28
    Agradecimientos

  3. #3
    Fecha de ingreso
    02 junio 1998
    Ubicación
    Plus Ultra
    Agradecimientos

    Re: Armin Van Buuren - ASOT 175 Tracklist/CUE

    recien termine la segunda parte, ahi la subi. Edite el 1er mensaje

  4. #4
    Fecha de ingreso
    23 septiembre 2004
    Ubicación
    capital
    Agradecimientos

    Re: Armin Van Buuren - ASOT 175 Tracklist/CUE

    ^^ put your hands up straight from netherlands...!!! XD
    [FONT=Lucida Sans Unicode] asot yourself < < < <[/FONT]

  5. #5
    Fecha de ingreso
    03 octubre 2004
    Ubicación
    Belgrano
    Edad
    34
    Agradecimientos

    Re: Armin Van Buuren - ASOT 175 Tracklist/CUE

    Ladies & gentelman your host for tonight............
    Visions Exist to be Lived







Etiquetas para este tema

Información de tema

Usuarios viendo este tema

Actualmente hay 1 usuarios viendo este tema. (0 miembros y 1 visitantes)

Temas similares

  1. Respuestas: 15
    Último mensaje: sábado 17 octubre de 2009, 03:46
  2. Pedido - Cue Trance: Armin Van Buuren - ASOT 386 (Armin Only: Imagine Together As One Special) 08-
    Por Leandrugs en el foro Archivo de Seccion para Pedidos
    Respuestas: 2
    Último mensaje: viernes 09 enero de 2009, 16:58
  3. Trance Armin Van Buuren ASOT 301 !!!!
    Por greem en el foro SETs
    Respuestas: 1
    Último mensaje: viernes 25 mayo de 2007, 15:24
  4. Trance Armin van Buuren - ASOT 002
    Por vikingo en el foro SETs
    Respuestas: 1
    Último mensaje: miércoles 04 octubre de 2006, 11:51
  5. Trance Asot 267 Armin Van Buuren
    Por lucas22monteiro en el foro SETs
    Respuestas: 35
    Último mensaje: sábado 23 septiembre de 2006, 00:49

Permisos de publicación

  • No puedes crear nuevos temas
  • No puedes responder temas
  • No puedes subir archivos adjuntos
  • No puedes editar tus mensajes
  •