Paul Van Dyk - Live At Einslive Rocker 05-15-2005

Download : http://www.trancetraffic.com/details.php?id=7486

Tracklist :
01. Synergy - Hello Strings (Flash Brothers Remix)
02. Yellow Blackbird - Superfly (Andy Moor Remix)
03. Above & Beyond pres. Tranquility Base - Getting Away (Leama & Moor Remix)
04. Max Graham - Does She Know Yet
05. DJ Icey - Beyond The Gilded Rays
06. Yoshimoto - Do What U Do (Trentmoller Remix)
07. Paul van Dyk - Connected (Markus Schulz Reconstruction)
08. Nightlight - For U (Matthew Cerf Remix)
09. Marc Marberg - Guarana
10. Solo Plastic - Get Down (B Side)
11. Jose Amnesia vs Serp - Second Day (Martin Roth Remix)
12. ZGR - The Love Below
13. Johnny Arthur - Out Of It (Johnny's Chicken Knickers Mix)
14. Luminary - My World (Nikola Gala Remix)
15. Lolo - Why? (Paul van Dyk Rework)
16. Matthew Dekay vs The Proluctors - Bad
17. Exo - Above The Clouds
18. York - Iceflowers (Mac Lane Remix)
19. Martin Roth "Hands On Keane" - Last Time
20. Morgan's Wave - The Morgan's Wave

CUE.
FILE "01-paul_van_dyk_-_live_at_einslive_rocker-05-15-2005-xds.mp3" MP3
TRACK 01 AUDIO
TITLE "Hello Strings (Flash Brothers Remix)"
PERFORMER "Synergy"
INDEX 01 00:00:00
TRACK 02 AUDIO
TITLE "Superfly (Andy Moor Remix)"
PERFORMER "Yellow Blackbird"
INDEX 01 04:49:00
TRACK 03 AUDIO
TITLE "Getting Away (Leama & Moor Remix)"
PERFORMER "Above & Beyond pres Tranquility Base"
INDEX 01 10:56:00
TRACK 04 AUDIO
TITLE "Does She Know Yet"
PERFORMER "Max Graham"
INDEX 01 17:54:00
TRACK 05 AUDIO
TITLE "Beyond The Gilded Rays"
PERFORMER "DJ Icey"
INDEX 01 24:51:00
TRACK 06 AUDIO
TITLE "Du What U Du (Trentemoller Remix)"
PERFORMER "Yoshimoto"
INDEX 01 29:23:00
TRACK 07 AUDIO
TITLE "Connected (Markus Schulz Reconstruction)"
PERFORMER "Paul van Dyk"
INDEX 01 36:05:00
TRACK 08 AUDIO
PERFORMER "ID"
INDEX 01 42:40:00
TRACK 09 AUDIO
TITLE "Guarana"
PERFORMER "Marc Marberg"
INDEX 01 49:34:00
TRACK 10 AUDIO
TITLE "Get Down (Club B Mix)"
PERFORMER "Solo Plastic"
INDEX 01 54:27:00
TRACK 11 AUDIO
TITLE "Second Day (Martin Roth Remix)"
PERFORMER "Jose Amnesia vs Serp"
INDEX 01 55:44:00
TRACK 12 AUDIO
TITLE "The Love Below"
PERFORMER "ZGR"
INDEX 01 62:55:00
TRACK 13 AUDIO
TITLE "Out Of It (Johnny's Chicken Knickers Mix)"
PERFORMER "Johnny Arthur"
INDEX 01 68:01:00
TRACK 14 AUDIO
TITLE "My World (Nikola Gala Remix)"
PERFORMER "Luminary"
INDEX 01 73:20:00
TRACK 15 AUDIO
TITLE "Why [PvD Rework]"
PERFORMER "Lolo"
INDEX 01 80:22:00
TRACK 16 AUDIO
TITLE "Bad"
PERFORMER "Matthew Dekay"
INDEX 01 87:06:00
TRACK 17 AUDIO
TITLE "Above The Clouds"
PERFORMER "The Freak pres. Exo"
INDEX 01 93:34:00
TRACK 18 AUDIO
TITLE "Iceflowers (Mac Lane Remix)"
PERFORMER "York"
INDEX 01 99:15:00
TRACK 19 AUDIO
TITLE "Last Time (Martin Roth Rework)"
PERFORMER "Keane"
INDEX 01 104:09:00
TRACK 20 AUDIO
TITLE "The Morgan's Wave"
PERFORMER "Morgan's Wave"
INDEX 01 111:47:00