Armin Van Buuren - A State Of Trance 201 (16-06-2005)
Resultados 1 al 3 de 3
  1. #1
    Fecha de ingreso
    19 septiembre 1997
    Ubicación
    Ciudad Autónoma de Buenos Aires
    Agradecimientos

    Armin Van Buuren - A State Of Trance 201 (16-06-2005)

    A State of Trance 201
    with [FONT=Arial]Armin Van Buuren[/FONT]
    (16-06-2005)



    Transmitido online a las 15 hs de Argentina en http://www.di.fm/trance/info/.

    Windows Media: http://di.fm/wma/trance.asx
    Winamp: http://di.fm/mp3/trance.pls

    Tracklist, download y cue here

    Tracklist:
    1. Chable & the Dirty Fours - Tokyo (Chable's Yellow remix) (Trojan)
    2. Petibonum - Little Planet (Captivating Sounds)
    3. Alex Stealthy - Able to Forget (White)
    4. Armin van Buuren feat. Gabriel & Dresden - Zocalo (Armind)
    5. Leon Bolier - Back in the Days (White)
    6. Sayla - Majestic (Arizona & Passiva remix) (Dedicated)
    7. Matti Kotala - Aedena (Octagen remix) (white)
    8. Ferry Corsten vs the Thrillseekers - Sublime (Tsunami)
    9. EnMass - Chunky Monkey (ASOT)
    10. Mr. Sam - Lyteo (Rank 1 remix) (Blackhole)
    11. TUNE OF THE WEEK: Randy Katana - Pleasure Island (dub) (Spinnin)
    12. Menno de Jong - Tundra (Fierce dub) (Intuition)
    13. Above & Beyond vs Andy Moor - Air for life (Airwave remix) (Anjunabeats)
    14. M.I.K.E. - Fuego Caliente (Dimitri Andreas remix) (club Elite)
    15. Orkan - Shibuya (Got drums? mix) (Gesture)
    16. A Force - Atomic Outbreak (Kimo Lopez dub) (Fundamental)
    17. Sander van Doorn - A.K.A. (Spinnin)
    18. Signum - [email protected] (ASOT)
    19. Rank 1 - Opus 17 (Be Yourself)
    20. RR Workshop - Solar Flare (Electronic Elements)
    21. Markus Schulz feat. Departure - Without you near (Gabriel & Dresden remix) (Coldharbour)

    Download:
    Trancetraffic: http://www.trancetraffic.com/downloa...005-TT.torrent (deben estar registrados en www.trancetraffic.com)
    Directo: http://beatboy1.valuehost.co.uk/fly/...liance.com.zip (pass: turbotrance)

    Release data:
    Release Name: Armin van Buuren - A State Of Trance Episode 201 (06-16-2005)
    Genre.......: Trance
    Source......: TranceTraffic 1337 Sources
    Rip Date....: 06-16-2005
    Year........: 2005
    Playtime....: 123:02
    Quality.....: 192kbps 44.1khz Joint Stereo

    Release Notes:
    This is a streamrip of the DI.fm Premium channel. Enjoy

    CUE:
    Código:
    PERFORMER "Armin van Buuren"
    TITLE "A State of Trance 201 (16-06-2005)"
    FILE "01_armin_van_buuren_-_a_state_of_trance_201_(di.fm)_06-16-2005-tt.mp3" MP3
      TRACK 01 AUDIO
        PERFORMER "Chable and The Dirty Fours"
        TITLE "Tokyo (Chable's Yellow Remix)"
        INDEX 01 00:00:00
      TRACK 02 AUDIO
        PERFORMER "Petibonum"
        TITLE "Little planet"
        INDEX 01 06:04:43
      TRACK 03 AUDIO
        PERFORMER "Alex Stealthy"
        TITLE "Able to forget"
        INDEX 01 12:08:25
      TRACK 04 AUDIO
        PERFORMER "Armin van Buuren featuring Gabriel and Dresden"
        TITLE "Zocalo"
        INDEX 01 16:44:60
      TRACK 05 AUDIO
        PERFORMER "Leon Bolier"
        TITLE "Back in The Days"
        INDEX 01 23:56:00
      TRACK 06 AUDIO
        PERFORMER "Menno de Jong presents Sayla"
        TITLE "Majestic (Arizona vs. Passiva Remix)"
        INDEX 01 29:24:75
      TRACK 07 AUDIO
        PERFORMER "Matti Kotala"
        TITLE "Aedena (Octagen Remix)"
        INDEX 01 36:04:35
      TRACK 08 AUDIO
        PERFORMER "Ferry Corsten vs. Thrillseekers"
        TITLE "Sublime (Original Extended Mix)"
        INDEX 01 42:03:23
      TRACK 09 AUDIO
        PERFORMER "EnMass"
        TITLE "Chunky monkey"
        INDEX 01 46:51:55
      TRACK 10 AUDIO
        PERFORMER "Mr. Sam"
        TITLE "Lyteo (Rank 1 Remix)"
        INDEX 01 53:00:17
      TRACK 11 AUDIO
        PERFORMER "Randy Katana"
        TITLE "Pleasure Island (Dub Mix)(Tune of The Week)"
        INDEX 01 57:29:37
      TRACK 12 AUDIO
        PERFORMER "Menno de Jong"
        TITLE "Tundra (Fierce Dub)"
        INDEX 01 63:12:57
      TRACK 13 AUDIO
        PERFORMER "Above and Beyond vs. Andy Moor"
        TITLE "Air for life (Airwave Remix)"
        INDEX 01 69:37:60
      TRACK 14 AUDIO
        PERFORMER "M.I.K.E."
        TITLE "Fuego Caliente (Dimitri Andreas Remix)"
        INDEX 01 75:13:55
      TRACK 15 AUDIO
        PERFORMER "Orkan"
        TITLE "Shibuya (Got drums? Mix)"
        INDEX 01 80:49:50
      TRACK 16 AUDIO
        PERFORMER "A-Force"
        TITLE "Atomic Outbreak (Kimo Lopez Dub)"
        INDEX 01 86:32:50
      TRACK 17 AUDIO
        PERFORMER "Sander van Doorn"
        TITLE "A.K.A."
        INDEX 01 92:36:55
      TRACK 18 AUDIO
        PERFORMER "Signum"
        TITLE "Back at ya"
        INDEX 01 97:06:16
      TRACK 19 AUDIO
        PERFORMER "Rank 1"
        TITLE "Opus 17"
        INDEX 01 102:11:60
      TRACK 20 AUDIO
        PERFORMER "R.R. Workshop"
        TITLE "Solar flare"
        INDEX 01 109:15:10
      TRACK 21 AUDIO
        PERFORMER "Markus Schulz featuring Departure"
        TITLE "Without you near (Gabriel and Dresden Remix)"
        INDEX 01 113:00:48
    INFO "CUE Created By http://music.anuga.se/"
    .:: Kero ::.
    Por consultas del foro, dirigirse a Julian

  2. #2
    Fecha de ingreso
    16 enero 2005
    Ubicación
    Recolettta
    Agradecimientos

    Re: Armin Van Buuren - A State Of Trance 201 (16-06-2005)

    ¦ download set ¦

    pass: turbotrance
    We Are Accidents Waiting To Happen* www.myspace.com/vuenos_ayres

  3. #3
    Fecha de ingreso
    19 septiembre 1997
    Ubicación
    Ciudad Autónoma de Buenos Aires
    Agradecimientos

    Re: Armin Van Buuren - A State Of Trance 201 (16-06-2005)

    cue added
    .:: Kero ::.
    Por consultas del foro, dirigirse a Julian

Etiquetas para este tema

Información de tema

Usuarios viendo este tema

Actualmente hay 1 usuarios viendo este tema. (0 miembros y 1 visitantes)

Temas similares

  1. Armin van Buuren - State of trance @ Mad (2-12-2005)
    Por DEEPEST_LUKE en el foro SETs
    Respuestas: 3
    Último mensaje: sábado 17 diciembre de 2005, 19:54
  2. Respuestas: 3
    Último mensaje: martes 15 noviembre de 2005, 00:02
  3. Respuestas: 17
    Último mensaje: martes 25 octubre de 2005, 02:30
  4. Respuestas: 0
    Último mensaje: viernes 14 octubre de 2005, 16:27
  5. Respuestas: 31
    Último mensaje: jueves 31 marzo de 2005, 18:14

Permisos de publicación

  • No puedes crear nuevos temas
  • No puedes responder temas
  • No puedes subir archivos adjuntos
  • No puedes editar tus mensajes
  •