Paul van Dyk - 15 Jahre Maximal @ Club U60311 (05-13-05)

-- Publicidad --

Delta 90.3

Resultados 1 al 13 de 13
  1. #1
    Fecha de ingreso
    05 diciembre 2004
    Ubicación
    haedo
    Edad
    33
    Agradecimientos

    Arrebaaa Paul van Dyk - 15 Jahre Maximal @ Club U60311 (05-13-05)

    Paul van Dyk - 15 Jahre Maximal @ Club U60311 (05-13-05)
    increible set de 3 horas.... muy arriba, la verdad q excelente, si alguien consegui el tracklist q lo postee pliz

    lo pueden bajar desde..
    http://www.tranceaddict.com/livesets.shtml
    esta pagina ya la habia posteado.. pero no queria q se pierdan la oportunidad de bajar eso... click derecho guardar destino como...
    q lo disfuten!

  2. #2
    Fecha de ingreso
    31 agosto 2004
    Ubicación
    Lanus Oeste
    Edad
    35
    Agradecimientos

    Gracioso Re: Paul van Dyk

    Mayiii Sabelo Que ya me lo estyo bajando.. !!

    Ea ea ea Sabado @ Pac - Man jajajajja xD xD
    This is...

  3. #3
    Fecha de ingreso
    23 diciembre 2004
    Ubicación
    Belgrano C
    Edad
    32
    Agradecimientos

    Re: Paul van Dyk

    aper aper... , bajandow

    gracias maxi

    psy-trance.
    msn: [email protected]

  4. #4
    Fecha de ingreso
    29 marzo 2005
    Ubicación
    Pinamar
    Agradecimientos

    Re: Paul van Dyk

    EWaa Bien ahi maxi

    BAJANDO !

  5. #5
    Fecha de ingreso
    18 febrero 2005
    Ubicación
    Cuidad Gotica
    Edad
    37
    Agradecimientos

    Re: Paul van Dyk

    Buena Chad, pero esto ya estaba en otro post o sigo estando loco ???
    Igualmente es muy recomendable este set !

  6. #6
    Fecha de ingreso
    15 noviembre 2004
    Ubicación
    Palermo
    Edad
    31
    Agradecimientos

    Re: Paul van Dyk

    Bajando!

  7. #7
    Fecha de ingreso
    16 enero 2005
    Ubicación
    Recolettta
    Agradecimientos

    Re: Paul van Dyk

    muchas gracaias man =)...
    We Are Accidents Waiting To Happen* www.myspace.com/vuenos_ayres

  8. #8
    Fecha de ingreso
    26 marzo 2005
    Ubicación
    Banfield
    Edad
    37
    Agradecimientos

    Arrebaaa Re: Paul van Dyk

    [font=Courier New]Gracias por la data.
    Saludos!
    [/font]
    [FONT=Courier New]Pablo...[/FONT]
    [FONT=Courier New]Euphoria Party Staff[/FONT]

  9. #9
    Fecha de ingreso
    08 mayo 2005
    Ubicación
    pilar
    Edad
    42
    Agradecimientos

    Re: Paul van Dyk

    ya lo estoy bajando muchas gracias

  10. #10
    Fecha de ingreso
    31 agosto 2004
    Ubicación
    Lanus Oeste
    Edad
    35
    Agradecimientos

    Gracioso Re: Paul van Dyk

    Es buenisimoooo ese set.!!!

    Recomendado bajenlo..
    Che ahora a conseguir el track.
    This is...

  11. #11
    Fecha de ingreso
    05 diciembre 2004
    Ubicación
    haedo
    Edad
    33
    Agradecimientos

    Re: Paul van Dyk

    Cita Iniciado por pepe_04
    Paul van Dyk - 15 Jahre Maximal @ Club U60311 (05-13-05)



    code:--------------------------------------------------------------------------------
    TRACK 01 AUDIO
    TITLE "Fancy Fair 05"
    PERFORMER "Randy Kantana"
    INDEX 01 00:00:00
    TRACK 02 AUDIO
    TITLE "Say Hello (Paul van Dyk Remix)"
    PERFORMER "Deep Dish"
    INDEX 01 05:33:00
    TRACK 03 AUDIO
    TITLE "Swing 2 Harmony (Deserves An Effort Symphony Dub Mix)"
    PERFORMER "Perasma"
    INDEX 01 12:43:00
    TRACK 04 AUDIO
    PERFORMER "ID"
    INDEX 01 17:52:00
    TRACK 05 AUDIO
    TITLE "Someday (Instrumental Mix)"
    PERFORMER "Whiteroom feat. Amy Cooper"
    INDEX 01 23:42:00
    TRACK 06 AUDIO
    TITLE "Falling Anywhere"
    PERFORMER "Kyau vs Albert"
    INDEX 01 28:45:00
    TRACK 07 AUDIO
    TITLE "The Unknown (Paul van Dyk Remix)"
    PERFORMER "White Water"
    INDEX 01 31:12:00
    TRACK 08 AUDIO
    TITLE "Close Horizon"
    PERFORMER "Thomas Bronzwaer"
    INDEX 01 37:01:00
    TRACK 09 AUDIO
    TITLE "Why [PvD Rework]"
    PERFORMER "Lolo"
    INDEX 01 44:11:00
    TRACK 10 AUDIO
    TITLE "Getting Away (Leama & Moor Remix)"
    PERFORMER "Tranquility Base"
    INDEX 01 50:07:00
    TRACK 11 AUDIO
    TITLE "Superfly (Andy Moor Remix)"
    PERFORMER "Yellow Blackbird"
    INDEX 01 56:36:00
    TRACK 12 AUDIO
    TITLE "Believe (Max Graham's Sidechain Remix)"
    PERFORMER "Santiago Nino"
    INDEX 01 62:22:00
    TRACK 13 AUDIO
    TITLE "The Other Side (?? Mix)"
    PERFORMER "Paul van Dyk"
    INDEX 01 66:47:00
    TRACK 14 AUDIO
    TITLE "Just For A Day (Marc van Linden Remix)"
    PERFORMER "Marcos"
    INDEX 01 76:35:00
    TRACK 15 AUDIO
    TITLE "Alive"
    PERFORMER "Josh Gabriel"
    INDEX 01 81:55:00
    TRACK 16 AUDIO
    TITLE "Second Day (Martin Roth Remix)"
    PERFORMER "Jose Amnesia vs Serp"
    INDEX 01 88:43:00
    TRACK 17 AUDIO
    TITLE "Adrenaline"
    PERFORMER "Purple Haze"
    INDEX 01 95:56:00
    TRACK 18 AUDIO
    TITLE "Spirits (Slusnik Luna Remix)"
    PERFORMER "Modulation"
    INDEX 01 102:04:00
    TRACK 19 AUDIO
    TITLE "Mars (Kai Tracid Remix)"
    PERFORMER "Emmanuel Top"
    INDEX 01 106:45:00
    TRACK 20 AUDIO
    TITLE "Spastik"
    PERFORMER "Plastikman"
    INDEX 01 112:14:00
    TRACK 21 AUDIO
    TITLE "Shibuya"
    PERFORMER "Orkan"
    INDEX 01 115:01:00
    TRACK 22 AUDIO
    PERFORMER "ID"
    INDEX 01 119:48:00
    TRACK 23 AUDIO
    TITLE "Where The Streets Have No Name (Nu-NRG Remix)"
    PERFORMER "U2"
    INDEX 01 124:40:00
    TRACK 24 AUDIO
    TITLE "Above The Clouds"
    PERFORMER "The Freak pres. Exo"
    INDEX 01 130:39:00
    TRACK 25 AUDIO
    TITLE "Iceflowers (Mac Lane Remix)"
    PERFORMER "York"
    INDEX 01 136:19:00
    TRACK 26 AUDIO
    TITLE "Perfect Blend"
    PERFORMER "T4L"
    INDEX 01 141:34:00
    TRACK 27 AUDIO
    TITLE "Murder Was The Bass (Reworked)"
    PERFORMER "DK8"
    INDEX 01 147:04:00
    TRACK 28 AUDIO
    TITLE "Make It (Dub)"
    PERFORMER "Simon & Shaker"
    INDEX 01 149:33:00
    TRACK 29 AUDIO
    TITLE "Yeah"
    PERFORMER "Steve Angello & Sebastian Ingrosso"
    INDEX 01 153:11:00
    TRACK 30 AUDIO
    PERFORMER "ID"
    INDEX 01 158:12:00
    TRACK 31 AUDIO
    TITLE "Shine (Heart Of Stone Mix) [PvD Rework]"
    PERFORMER "CJ Stone"
    INDEX 01 164:30:00
    TRACK 32 AUDIO
    PERFORMER "ID"
    INDEX 01 169:39:00
    TRACK 33 AUDIO
    TITLE "Messages [PvD Rework]"
    PERFORMER "Gerry Cueto"
    INDEX 01 175:33:00
    TRACK 34 AUDIO
    TITLE "The Other Side"
    PERFORMER "Paul van Dyk"
    INDEX 01 181:42:00
    ahi va

  12. #12
    Fecha de ingreso
    15 marzo 2005
    Ubicación
    Far Beyond The Sun...
    Edad
    32
    Agradecimientos

    Re: Paul van Dyk

    muchisimas gracias man hace tiempo venia buscando un live set y essential mix de PVD si alguien tiene un essential mix chlife saludos!
    "Por una Argentina mas Trance"

  13. #13
    Fecha de ingreso
    30 diciembre 2004
    Ubicación
    Montevideo
    Edad
    34
    Agradecimientos

    Re: Paul van Dyk

    ya lo toy bajandooooooooooo
    [FONT=Century Gothic].....come closer 2 the speakers so i can see the light in your eyes....[/FONT]
    Que elemento el Mario Bros eh.... saltando todo el día bajo el efecto de [email protected]$&&% alucinógenos, al ritmo de musiquitas energizantes, para llegar a rescatar a una princesa que lo único que le da es un abrazo... :-0

Etiquetas para este tema

Información de tema

Usuarios viendo este tema

Actualmente hay 1 usuarios viendo este tema. (0 miembros y 1 visitantes)

Temas similares

  1. Trance Paul van Dyk 15 Jahre Maximal @ Club U60311
    Por oxygene en el foro Radioshows
    Respuestas: 0
    Último mensaje: jueves 21 agosto de 2008, 08:09
  2. Pedido - Mirror Paul Van Dyk - 15 Jahre Maximal @ Club U60311 13.05.05
    Por chachodci en el foro Archivo de Seccion para Pedidos
    Respuestas: 9
    Último mensaje: domingo 17 agosto de 2008, 14:29
  3. Respuestas: 4
    Último mensaje: miércoles 25 julio de 2007, 23:57

Permisos de publicación

  • No puedes crear nuevos temas
  • No puedes responder temas
  • No puedes subir archivos adjuntos
  • No puedes editar tus mensajes
  •