Armin Van Buuren - A State Of Trance 199 (02-06-2005)
Resultados 1 al 2 de 2
  1. #1
    Fecha de ingreso
    19 septiembre 1997
    Ubicación
    Ciudad Autónoma de Buenos Aires
    Agradecimientos

    Armin Van Buuren - A State Of Trance 199 (02-06-2005)

    A State of Trance 199
    Your Thursday Night Trance Treatment
    with [FONT=Arial]Armin Van Buuren[/FONT]
    (02-06-2005)


    Transmitido online a las 15 hs de Argentina en http://www.di.fm/trance/info/.

    Tracklist, download y cue here

    Tracklist:
    01. Tilt - New Day
    02. Way Out West - Don't Forget Me (Way Out Wests Dustbiter Remix)
    03. Gareth Emery and Jon O'Bir - Bouncebackability (Mind Remix)
    04. Niklas Harding pres Arcane - Ice Beach
    05. ID
    06. Menno De Jong - Tundra w/ Motorcycle - Around You (Accapella) [Tune Of The Week]
    07. Above & Beyond feat Andy Moor - Air For Life
    08. Exalted - Cavity
    09. Markus Schulz feat Departure - Without You Near
    10. Solarstone - Release (Zehavi & Rand Remix)
    11. ID
    12. ID
    13. Armin Van Buuren - Serenity (Signum Remix)
    14. Ton TB - Static Bullet
    15. ID
    16. Jochen Miller - India
    17. Sunblind - Believe (Ark In The Sky Dub Mix)
    18. ID
    19. Rank 1 - Top Gear
    20. ID
    21. Kenny Hayes - Daybreaker (Signum Remix)


    Download:
    Trancetraffic: http://www.trancetraffic.com/downloa...005-TT.torrent (deben estar registrados en www.trancetraffic.com)

    Release data:
    Release Name: Armin van Buuren - A State Of Trance Episode 199 (02-06-2005)
    Genre.......: Trance
    Source......: TranceTraffic 1337 Sources
    Rip Date....: 02-06-2005
    Year........: 2005
    Playtime....: 125:15
    Quality.....: 192kbps 44.1khz Joint Stereo

    Release Notes:
    This is a streamrip of the DI.fm Premium channel. Enjoy

    CUE:
    Código:
    PERFORMER "Armin van Buuren"
    TITLE "A State of Trance 199 (02-06-2005)"
    FILE "01_armin_van_buuren_-_a_state_of_trance_199_(di.fm)_02-06-2005-tt.mp3" MP3
      TRACK 01 AUDIO
        PERFORMER "Tilt"
        TITLE "New day (Boom Jinx Break Mix)"
        INDEX 01 00:00:00
      TRACK 02 AUDIO
        PERFORMER "Way Out West"
        TITLE "Don't forget me (Dustbiter Remix)"
        INDEX 01 06:18:25
      TRACK 03 AUDIO
        PERFORMER "Gareth Emery and Jon O'Bir"
        TITLE "Bouncebackability"
        INDEX 01 11:13:08
      TRACK 04 AUDIO
        PERFORMER "Niklas Harding presents Arcane"
        TITLE "Ice Beach"
        INDEX 01 18:09:15
      TRACK 05 AUDIO
        PERFORMER "Opticane"
        TITLE "Valley Cruiser"
        INDEX 01 23:55:15
      TRACK 06 AUDIO
        PERFORMER "Menno de Jong"
        TITLE "Tundra (Fierce Dub)(Tune of The Week)"
        INDEX 01 31:41:40
      TRACK 07 AUDIO
        PERFORMER "Above and Beyond vs. Andy Moor"
        TITLE "Air for life (Original Mix)"
        INDEX 01 37:16:35
      TRACK 08 AUDIO
        PERFORMER "Exalted"
        TITLE "Cavity"
        INDEX 01 41:50:05
      TRACK 09 AUDIO
        PERFORMER "Markus Schulz featuring Departure"
        TITLE "Without you near (Gabriel and Dresden Remix)"
        INDEX 01 47:27:65
      TRACK 10 AUDIO
        PERFORMER "Solar Stone"
        TITLE "Release (Zehavi and Rand Remix)"
        INDEX 01 55:15:50
      TRACK 11 AUDIO
        PERFORMER "Menno de Jong presents Sayla"
        TITLE "Majestic (Arizona vs. Passiva Remix)"
        INDEX 01 59:53:60
      TRACK 12 AUDIO
        PERFORMER "Alex Gold"
        TITLE "Back from a break (Better Days)"
        INDEX 01 66:26:50
      TRACK 13 AUDIO
        PERFORMER "Armin van Buuren featuring Jan Vayne"
        TITLE "Serenity (Signum Mix)"
        INDEX 01 73:59:10
      TRACK 14 AUDIO
        PERFORMER "Ton T.B."
        TITLE "Static Bullit"
        INDEX 01 78:40:70
      TRACK 15 AUDIO
        PERFORMER "Sami S."
        TITLE "Oasis"
        INDEX 01 84:04:40
      TRACK 16 AUDIO
        PERFORMER "Jochen Miller"
        TITLE "India (Miller Dub)"
        INDEX 01 90:23:10
      TRACK 17 AUDIO
        PERFORMER "Sunblind"
        TITLE "Believe (Arc in The Sky Dub)"
        INDEX 01 94:48:35
      TRACK 18 AUDIO
        PERFORMER "Abel Ramos"
        TITLE "Aquarius (Spoke Remix)"
        INDEX 01 101:29:00
      TRACK 19 AUDIO
        PERFORMER "Rank 1"
        TITLE "Top Gear"
        INDEX 01 106:21:30
      TRACK 20 AUDIO
        PERFORMER "Özgür Can"
        TITLE "Changed (Gabriel and Dresden Remix)"
        INDEX 01 114:04:00
      TRACK 21 AUDIO
        PERFORMER "Kenny Hayes"
        TITLE "Daybreaker (Signum Instrumental)"
        INDEX 01 118:02:20
    INFO "CUE Created By http://music.anuga.se/"
    Sigue acá: http://www.nightclubber.com.ar/foro/...ead.php?t=4383
    .:: Kero ::.
    Por consultas del foro, dirigirse a Julian

  2. #2
    Fecha de ingreso
    19 septiembre 1997
    Ubicación
    Ciudad Autónoma de Buenos Aires
    Agradecimientos

    Re: Armin Van Buuren - A State Of Trance 199 (02-06-2005)

    cue added
    .:: Kero ::.
    Por consultas del foro, dirigirse a Julian

Etiquetas para este tema

Información de tema

Usuarios viendo este tema

Actualmente hay 1 usuarios viendo este tema. (0 miembros y 1 visitantes)

Temas similares

  1. Armin van Buuren - State of trance @ Mad (2-12-2005)
    Por DEEPEST_LUKE en el foro SETs
    Respuestas: 3
    Último mensaje: sábado 17 diciembre de 2005, 19:54
  2. Respuestas: 3
    Último mensaje: martes 15 noviembre de 2005, 00:02
  3. Respuestas: 17
    Último mensaje: martes 25 octubre de 2005, 02:30
  4. Respuestas: 0
    Último mensaje: viernes 14 octubre de 2005, 16:27
  5. Respuestas: 31
    Último mensaje: jueves 31 marzo de 2005, 18:14

Permisos de publicación

  • No puedes crear nuevos temas
  • No puedes responder temas
  • No puedes subir archivos adjuntos
  • No puedes editar tus mensajes
  •