Armin Van Buuren - A State Of Trance 196 (12-05-2005)

-- Publicidad --

Delta 90.3

Resultados 1 al 9 de 9
  1. #1
    Fecha de ingreso
    19 septiembre 1997
    Ubicación
    Ciudad Autónoma de Buenos Aires
    Agradecimientos

    Armin Van Buuren - A State Of Trance 196 (12-05-2005)

    A State of Trance 196
    Your Thursday Night Trance Treatment
    with [FONT=Arial]Armin Van Buuren[/FONT]
    (12-05-2005)


    Como todos los jueves, hoy jueves 12 de mayo se transmite el show en vivo a las 16 hs de Argentina desde http://www.di.fm/trance/info/.
    Acá tienen el tracklist y el show original, no el rip de la radio, en 256 Kbps, en un rato sale el CUE


    Tracklist:
    01. Max Graham feat Jessica Jacobs - I Know You're Gone
    02. Luminary - Wasting (Andy Moor Remix)
    03. Sultan & Tonedepth - Please (Original Mix)
    04. LNQ - People I Used To Know (Mike Foyle Remix)
    05. Way Out West - Don't Forget Me (Way Out West Dustbiter Remix)
    06. Eye Wall - Bad Deal (Remy & Roland Klinkenberg Remix) [Tune Of The Week]
    07. Underwater - Water Planet (Aerodrome Remix)
    08. Signalrunners - Backfire (Activa Remix)
    09. John O'Callaghan - Shivver (Agnelli & Nelson Remix)
    10. Marco V - More Than A Life Away
    11. Lennox - Flying Amongs The Stars (Airbase Remix)
    12. Naxos Project - Cold Fusion (Original Mix)
    13. Inertia - The Chamber
    14. Icone - The Way Home
    15. Mark Norman - Teardrop
    16. B&W - Mistaken (Fictivision Mix) vs Yahel feat A-Force - Behind Silence
    17. Ron van der Beuken - Sunset (Ron van der Beuken Remix)
    18. Armin van Buuren - Serenity (Sensation White Theme 2005)
    19. Thomas Bronzwaer - Close Horizon
    20. Raul Cremona - Virus

    Download:
    Trancetraffic: http://www.trancetraffic.com/downloa...005-TT.torrent (deben estar registrados en www.trancetraffic.com)

    Release data:
    Release Name: Armin van Buuren - A State Of Trance Episode 196 (12-05-2005)
    Genre.......: Trance
    Source......: TranceTraffic 1337 Sources
    Rip Date....: 12-05-2005
    Year........: 2005
    Playtime....: 123:33
    Quality.....: 256kbps 44.1khz Stereo

    Release Notes:
    This is not a streamrip, its the original 256kbps source mp3
    Enjoy it the second the show is over

    CUE:
    Código:
    TITLE "A State of Trance Episode 196 (12-05-2005)"
    PERFORMER "Armin van Buuren"
    FILE "01_armin_van_buuren_-_a_state_of_trance_196_(di.fm)_12-05-2005-tt.mp3" MP3
      TRACK 01 AUDIO
        TITLE "I Know You're Gone"
        PERFORMER "Max Graham feat Jessica Jacobs"
        INDEX 01 00:00:00
      TRACK 02 AUDIO
        TITLE "Wasting (Andy Moor Remix)"
        PERFORMER "Luminary"
        INDEX 01 03:26:33
      TRACK 03 AUDIO
        TITLE "Please (Original Mix)"
        PERFORMER "Sultan & Tonedepth"
        INDEX 01 10:59:72
      TRACK 04 AUDIO
        TITLE "People I Used To Know (Mike Foyle Remix)"
        PERFORMER "LNQ"
        INDEX 01 17:39:04
      TRACK 05 AUDIO
        TITLE "Don't Forget Me (Way Out West Dustbiter Remix)"
        PERFORMER "Way Out West"
        INDEX 01 21:34:33
      TRACK 06 AUDIO
        TITLE "Bad Deal (Remy & Roland Klinkenberg Remix) [Tune Of The Week]"
        PERFORMER "Eye Wall"
        INDEX 01 26:10:53
      TRACK 07 AUDIO
        TITLE "Water Planet (Aerodrome Remix)"
        PERFORMER "Underwater"
        INDEX 01 32:59:48
      TRACK 08 AUDIO
        TITLE "Backfire (Activa Remix)"
        PERFORMER "Signalrunners"
        INDEX 01 40:35:38
      TRACK 09 AUDIO
        TITLE "Shivver (Agnelli & Nelson Remix)"
        PERFORMER "John O Callaghan"
        INDEX 01 47:27:18
      TRACK 10 AUDIO
        TITLE "More Than A Life Away"
        PERFORMER "Marco V"
        INDEX 01 54:43:70
      TRACK 11 AUDIO
        TITLE "Flying Amongs The Stars (Airbase Remix)"
        PERFORMER "Lennox"
        INDEX 01 60:07:70
      TRACK 12 AUDIO
        TITLE "Cold Fusion (Original Mix)"
        PERFORMER "Naxos Project"
        INDEX 01 67:56:22
      TRACK 13 AUDIO
        TITLE "The Chamber"
        PERFORMER "Inertia"
        INDEX 01 71:55:58
      TRACK 14 AUDIO
        TITLE "The Way Home"
        PERFORMER "Icone"
        INDEX 01 78:02:01
      TRACK 15 AUDIO
        TITLE "Teardrop"
        PERFORMER "Mark Norman"
        INDEX 01 85:32:61
      TRACK 16 AUDIO
        TITLE "Yahel feat A-Force - Behind Silence"
        PERFORMER "B&W - Mistaken (Fictivision Mix) vs"
        INDEX 01 91:00:00
      TRACK 17 AUDIO
        TITLE "Sunset (Ron van den Beuken Remix)"
        PERFORMER "Ron van den Beuken"
        INDEX 01 95:24:12
      TRACK 18 AUDIO
        TITLE "Serenity (Sensation White Theme 2005)"
        PERFORMER "Armin van Buuren"
        INDEX 01 103:24:10
      TRACK 19 AUDIO
        TITLE "Close Horizon"
        PERFORMER "Thomas Bronzwaer"
        INDEX 01 109:32:55
      TRACK 20 AUDIO
        TITLE "Virus"
        PERFORMER "Raul Cremona"
        INDEX 01 116:57:60
    .:: Kero ::.
    Por consultas del foro, dirigirse a Julian

  2. #2
    Fecha de ingreso
    16 octubre 2004
    Ubicación
    buenos aires
    Edad
    32
    Agradecimientos

    Re: Armin Van Buuren - A State Of Trance 196 (12-05-2005)

    buenisimo, bah la parte q escuche.......

    ahora lo bajo y escucho todo......

    Fui yo solo o alguno mas escucho una base parecida a TRAFFIC??
    gªs†y²
    NC Desvirtuation Team!
    [FONT="Times New Roman"] maniha squad [/FONT]

  3. #3
    Fecha de ingreso
    11 diciembre 2004
    Ubicación
    Cap Fed
    Agradecimientos

    Re: Armin Van Buuren - A State Of Trance 196 (12-05-2005)

    Holaaaa vengo a flotar!!!
    Gracias kero ahi lo bajo

  4. #4
    Fecha de ingreso
    31 agosto 2004
    Ubicación
    Lanus Oeste
    Edad
    35
    Agradecimientos

    Gracioso Re: Armin Van Buuren - A State Of Trance 196 (12-05-2005)

    ea ea Pero que rapidez ejjeje !!!

    yo escuche una parte sola.. estaba en el laburoo.. y no podia :(
    This is...

  5. #5
    Fecha de ingreso
    20 octubre 2004
    Ubicación
    Capital Federal
    Edad
    49
    Agradecimientos

    Re: Armin Van Buuren - A State Of Trance 196 (12-05-2005)

    Que buen programa!! Hoy la rompió el pibe a mi gusto... Mil gracias Kero como siempre!!
    30/12/2004 - No olvidarse, nos pudo tocar...

  6. #6
    Fecha de ingreso
    12 octubre 2004
    Ubicación
    Haedo
    Edad
    32
    Agradecimientos

    Re: Armin Van Buuren - A State Of Trance 196 (12-05-2005)

    Cita Iniciado por gastee!
    buenisimo, bah la parte q escuche.......

    ahora lo bajo y escucho todo......

    Fui yo solo o alguno mas escucho una base parecida a TRAFFIC??

    jaja fue un addagio for traffic ajaja
    eran los dos temas en uno :P
    jackcoke

  7. #7
    Fecha de ingreso
    07 mayo 2005
    Ubicación
    Mar del Plata
    Agradecimientos

    Re: Armin Van Buuren - A State Of Trance 196 (12-05-2005)

    uuuuu me lo perdi otra ves, mierda. ¿xq no me lo puedo bajar??? primero me aparecia una cuenta regresiva de 24 hs tiempo de nuebo usuario cuando termino me empezo otra ves y ahora me aparese rejected by tracker port 6884 is blacklisted. me podrian decir que pasa???

  8. #8
    Fecha de ingreso
    19 septiembre 1997
    Ubicación
    Ciudad Autónoma de Buenos Aires
    Agradecimientos

    Re: Armin Van Buuren - A State Of Trance 196 (12-05-2005)

    Cita Iniciado por delborda
    uuuuu me lo perdi otra ves, mierda. ¿xq no me lo puedo bajar??? primero me aparecia una cuenta regresiva de 24 hs tiempo de nuebo usuario cuando termino me empezo otra ves y ahora me aparese rejected by tracker port 6884 is blacklisted. me podrian decir que pasa???
    configurá tu cliente bittorrent con el puerto 6221
    .:: Kero ::.
    Por consultas del foro, dirigirse a Julian

  9. #9
    Fecha de ingreso
    19 septiembre 1997
    Ubicación
    Ciudad Autónoma de Buenos Aires
    Agradecimientos

    Re: Armin Van Buuren - A State Of Trance 196 (12-05-2005)

    CUE:
    Código:
    TITLE "A State of Trance Episode 196 (12-05-2005)"
    PERFORMER "Armin van Buuren"
    FILE "01_armin_van_buuren_-_a_state_of_trance_196_(di.fm)_12-05-2005-tt.mp3" MP3
      TRACK 01 AUDIO
        TITLE "I Know You're Gone"
        PERFORMER "Max Graham feat Jessica Jacobs"
        INDEX 01 00:00:00
      TRACK 02 AUDIO
        TITLE "Wasting (Andy Moor Remix)"
        PERFORMER "Luminary"
        INDEX 01 03:26:33
      TRACK 03 AUDIO
        TITLE "Please (Original Mix)"
        PERFORMER "Sultan & Tonedepth"
        INDEX 01 10:59:72
      TRACK 04 AUDIO
        TITLE "People I Used To Know (Mike Foyle Remix)"
        PERFORMER "LNQ"
        INDEX 01 17:39:04
      TRACK 05 AUDIO
        TITLE "Don't Forget Me (Way Out West Dustbiter Remix)"
        PERFORMER "Way Out West"
        INDEX 01 21:34:33
      TRACK 06 AUDIO
        TITLE "Bad Deal (Remy & Roland Klinkenberg Remix) [Tune Of The Week]"
        PERFORMER "Eye Wall"
        INDEX 01 26:10:53
      TRACK 07 AUDIO
        TITLE "Water Planet (Aerodrome Remix)"
        PERFORMER "Underwater"
        INDEX 01 32:59:48
      TRACK 08 AUDIO
        TITLE "Backfire (Activa Remix)"
        PERFORMER "Signalrunners"
        INDEX 01 40:35:38
      TRACK 09 AUDIO
        TITLE "Shivver (Agnelli & Nelson Remix)"
        PERFORMER "John O Callaghan"
        INDEX 01 47:27:18
      TRACK 10 AUDIO
        TITLE "More Than A Life Away"
        PERFORMER "Marco V"
        INDEX 01 54:43:70
      TRACK 11 AUDIO
        TITLE "Flying Amongs The Stars (Airbase Remix)"
        PERFORMER "Lennox"
        INDEX 01 60:07:70
      TRACK 12 AUDIO
        TITLE "Cold Fusion (Original Mix)"
        PERFORMER "Naxos Project"
        INDEX 01 67:56:22
      TRACK 13 AUDIO
        TITLE "The Chamber"
        PERFORMER "Inertia"
        INDEX 01 71:55:58
      TRACK 14 AUDIO
        TITLE "The Way Home"
        PERFORMER "Icone"
        INDEX 01 78:02:01
      TRACK 15 AUDIO
        TITLE "Teardrop"
        PERFORMER "Mark Norman"
        INDEX 01 85:32:61
      TRACK 16 AUDIO
        TITLE "Yahel feat A-Force - Behind Silence"
        PERFORMER "B&W - Mistaken (Fictivision Mix) vs"
        INDEX 01 91:00:00
      TRACK 17 AUDIO
        TITLE "Sunset (Ron van den Beuken Remix)"
        PERFORMER "Ron van den Beuken"
        INDEX 01 95:24:12
      TRACK 18 AUDIO
        TITLE "Serenity (Sensation White Theme 2005)"
        PERFORMER "Armin van Buuren"
        INDEX 01 103:24:10
      TRACK 19 AUDIO
        TITLE "Close Horizon"
        PERFORMER "Thomas Bronzwaer"
        INDEX 01 109:32:55
      TRACK 20 AUDIO
        TITLE "Virus"
        PERFORMER "Raul Cremona"
        INDEX 01 116:57:60
    .:: Kero ::.
    Por consultas del foro, dirigirse a Julian

Etiquetas para este tema

Información de tema

Usuarios viendo este tema

Actualmente hay 1 usuarios viendo este tema. (0 miembros y 1 visitantes)

Temas similares

  1. Armin van Buuren - State of trance @ Mad (2-12-2005)
    Por DEEPEST_LUKE en el foro SETs
    Respuestas: 3
    Último mensaje: sábado 17 diciembre de 2005, 19:54
  2. Respuestas: 3
    Último mensaje: martes 15 noviembre de 2005, 00:02
  3. Respuestas: 17
    Último mensaje: martes 25 octubre de 2005, 02:30
  4. Respuestas: 0
    Último mensaje: viernes 14 octubre de 2005, 15:27
  5. Respuestas: 31
    Último mensaje: jueves 31 marzo de 2005, 17:14

Permisos de publicación

  • No puedes crear nuevos temas
  • No puedes responder temas
  • No puedes subir archivos adjuntos
  • No puedes editar tus mensajes
  •