Request de CUE
Resultados 1 al 4 de 4
  1. #1
    Fecha de ingreso
    17 enero 2005
    Ubicación
    Capital Federal
    Edad
    27
    Agradecimientos

    Request de CUE

    Hola gente... quisiera saber si alguien tiene los CUE del Creamfields mix by Paul Oakenfold
    Bueno desde ya muchas gracias

  2. #2
    Fecha de ingreso
    02 diciembre 2004
    Ubicación
    Buenos Aires
    Edad
    35
    Agradecimientos

    Re: Request de CUE

    CD 1:
    PERFORMER "Unknown Artist"
    TITLE "Unknown Title"
    FILE "01-Creamfields-Mixed_By_Paul_Oakenfold-CD1-POW.mp3" MP3
    TRACK 01 AUDIO
    TITLE "Track01"
    PERFORMER "Unknown Artist"
    INDEX 01 00:00:00
    TRACK 02 AUDIO
    TITLE "Track02"
    PERFORMER "Unknown Artist"
    INDEX 00 07:43:05
    INDEX 01 07:43:06
    TRACK 03 AUDIO
    TITLE "Track03"
    PERFORMER "Unknown Artist"
    INDEX 00 13:31:39
    INDEX 01 13:31:40
    TRACK 04 AUDIO
    TITLE "Track04"
    PERFORMER "Unknown Artist"
    INDEX 00 18:49:35
    INDEX 01 18:49:36
    TRACK 05 AUDIO
    TITLE "Track05"
    PERFORMER "Unknown Artist"
    INDEX 00 24:21:68
    INDEX 01 24:21:69
    TRACK 06 AUDIO
    TITLE "Track06"
    PERFORMER "Unknown Artist"
    INDEX 00 30:37:49
    INDEX 01 30:37:50
    TRACK 07 AUDIO
    TITLE "Track07"
    PERFORMER "Unknown Artist"
    INDEX 00 37:37:57
    INDEX 01 37:37:58
    TRACK 08 AUDIO
    TITLE "Track08"
    PERFORMER "Unknown Artist"
    INDEX 00 44:10:05
    INDEX 01 44:10:06
    TRACK 09 AUDIO
    TITLE "Track09"
    PERFORMER "Unknown Artist"
    INDEX 00 52:10:54
    INDEX 01 52:10:55
    TRACK 10 AUDIO
    TITLE "Track10"
    PERFORMER "Unknown Artist"
    INDEX 00 56:19:27
    INDEX 01 56:19:28
    TRACK 11 AUDIO
    TITLE "Track11"
    PERFORMER "Unknown Artist"
    INDEX 00 61:40:73
    INDEX 01 61:40:74

    CD 2:
    PERFORMER "Unknown Artist"
    TITLE "Unknown Title"
    FILE "02-Creamfields-Mixed_By_Paul_Oakenfold-CD2-POW.mp3" MP3
    TRACK 01 AUDIO
    TITLE "Track01"
    PERFORMER "Unknown Artist"
    INDEX 01 00:00:00
    TRACK 02 AUDIO
    TITLE "Track02"
    PERFORMER "Unknown Artist"
    INDEX 00 05:35:45
    INDEX 01 05:35:46
    TRACK 03 AUDIO
    TITLE "Track03"
    PERFORMER "Unknown Artist"
    INDEX 00 10:04:67
    INDEX 01 10:04:68
    TRACK 04 AUDIO
    TITLE "Track04"
    PERFORMER "Unknown Artist"
    INDEX 00 14:56:01
    INDEX 01 14:56:02
    TRACK 05 AUDIO
    TITLE "Track05"
    PERFORMER "Unknown Artist"
    INDEX 00 20:58:20
    INDEX 01 20:58:21
    TRACK 06 AUDIO
    TITLE "Track06"
    PERFORMER "Unknown Artist"
    INDEX 00 26:42:20
    INDEX 01 26:42:21
    TRACK 07 AUDIO
    TITLE "Track07"
    PERFORMER "Unknown Artist"
    INDEX 00 31:13:62
    INDEX 01 31:13:63
    TRACK 08 AUDIO
    TITLE "Track08"
    PERFORMER "Unknown Artist"
    INDEX 00 36:56:64
    INDEX 01 36:56:65
    TRACK 09 AUDIO
    TITLE "Track09"
    PERFORMER "Unknown Artist"
    INDEX 00 42:40:03
    INDEX 01 42:40:04
    TRACK 10 AUDIO
    TITLE "Track10"
    PERFORMER "Unknown Artist"
    INDEX 00 47:54:27
    INDEX 01 47:54:28
    TRACK 11 AUDIO
    TITLE "Track11"
    PERFORMER "Unknown Artist"
    INDEX 00 54:48:35
    INDEX 01 54:48:36
    TRACK 12 AUDIO
    TITLE "Track12"
    PERFORMER "Unknown Artist"
    INDEX 00 62:11:05
    INDEX 01 62:11:06


    Es este cue el que necesitas?

  3. #3
    Fecha de ingreso
    21 febrero 2005
    Ubicación
    Buenos aires, Capital federal.
    Agradecimientos

    Re: Request de CUE

    de donde sacaste esta info, grosisimo men..

  4. #4
    Fecha de ingreso
    19 diciembre 2004
    Ubicación
    Mar del Plata Electronic City
    Edad
    33
    Agradecimientos

Etiquetas para este tema

Información de tema

Usuarios viendo este tema

Actualmente hay 1 usuarios viendo este tema. (0 miembros y 1 visitantes)

Temas similares

  1. request: un par de tracks
    Por skorpionrp en el foro Archivo de Seccion para Pedidos
    Respuestas: 0
    Último mensaje: sábado 25 marzo de 2006, 17:55
  2. Request: Tri-State.cue
    Por chApu en el foro Archivo de Seccion para Pedidos
    Respuestas: 5
    Último mensaje: jueves 23 marzo de 2006, 20:02
  3. Request Trance Around the World 105
    Por FaQ en el foro Seccion para Pedidos
    Respuestas: 0
    Último mensaje: miércoles 22 marzo de 2006, 18:21
  4. Request Tracks
    Por martinb77 en el foro Archivo de Seccion para Pedidos
    Respuestas: 1
    Último mensaje: miércoles 15 febrero de 2006, 15:42

Permisos de publicación

  • No puedes crear nuevos temas
  • No puedes responder temas
  • No puedes subir archivos adjuntos
  • No puedes editar tus mensajes
  •