Armin Van Buuren - A State Of Trance 194 (28-04-2005)
Resultados 1 al 16 de 16
  1. #1
    Fecha de ingreso
    19 septiembre 1997
    Ubicación
    Ciudad Autónoma de Buenos Aires
    Agradecimientos

    Armin Van Buuren - A State Of Trance 194 (28-04-2005)

    A State of Trance 194
    Your Thursday Night Trance Treatment
    with [FONT=Arial]Armin Van Buuren[/FONT]
    (28-04-2005)


    Como todos los jueves, hoy jueves 28 de abril se transmitió el show en vivo a las 16 hs de Argentina desde http://www.di.fm/trance/info/.
    Acá tienen el tracklist y el torrent para bajarlo, en un rato sale el CUE



    Tracklist:
    01. Thomas Datt - Alone (RN Intro Edit) (Discover)
    02. Niklas Harding presents Arcane - Ice Beach (White) [TUNE OF THE WEEK]
    03. Split Second - Midnight Express (Cyber Records)
    04. Binary Finary & Jose Amnesia presents Cloudbreak - Difference (Enhanced Recordings)
    05. Walsh & Coutre feat Holly - Burn (SOG Chrome)
    06. Perry O Neil - Gravity (Electronic Elements Rec.)
    07. Mike Foyle vs Signal Runners - Love Theme Dusk (Airbase presents Parc Remix) (Armind)
    08. Matthew Dekay vs Prolucters - Bad (DK Records)
    09. Armin van Buuren - Shivers (Alex M.O.R.P.H. Red Light Dub) (Armind)
    10. C-Quence - Endorphine (Blackhole)
    11. Filterheadz - Cartagena (White)
    12. Clear & Present - Elevate (John O Callaghan Remix) (ASOT)
    13. Zirens - Utopia (Gavin Mitchell Remix) (White)
    14. Motorcycle - Around You (Armind)
    15. Leon Bolier - Beyond (Blackhole)
    16. JPL - A Place Called Home (Passiva Remix) (ATCR)
    17. Deep Voice - Alone Again (Adjusted)
    18. Thomas Bronszwaer - Close Horizon (Dedicated)
    19. M.I.K.E. - Fuego Caliente (Club Elite)
    20. Lennox - Servants Of Justice (Alex M.O.R.P.H. Remix) (Mondo)
    21. Airbiscuit - Lately (Riley & Durrant Remix) (Zenith Cafe)
    22. Ron van den Beuken - Sunset (Original Mix) (Spinnin)
    23. Unknown Artist - Unknown Title (White)
    24. OHM Boys - Atlantis (Stoneface & Terminal Remix) (Drizzly)

    Download: Trancetraffic: (deben estar registrados en www.trancetraffic.com)

    Transmisión DI.FM: http://www.trancetraffic.com/downloa...005-TT.torrent
    Release Name: Armin van Buuren - A State Of Trance Episode 194 (28-04-2005)
    Genre.......: Trance
    Source......: TranceTraffic 1337 Sources
    Rip Date....: 28-04-2005
    Year........: 2005
    Playtime....: 123:44
    Quality.....: 256kbps 44.1khz Stereo

    Release Notes:
    This is a 256kbps version of the English version that was broadcasted on DI.FM
    its not a streamrip and is very good quality
    Fresh FM: http://www.trancetraffic.com/downloa...4CHOON.torrent
    Release Info:

    Artist....: Armin Van Buuren
    Album.....: A State Of Trance 194

    Supplier..: 4CHOON
    Genre.....: Trance
    Rip Date..: 28-04-2005
    Year......: 2005
    Grabber...: 4CHOON Grabber
    Encoder...: Lame enc
    Playtime..: 118:32
    Source....: Radio
    Quality...: 192Kbps / 44,1kHz / Full Stereo

    CUE:
    Código:
    TITLE "A State of Trance 194 (28-04-2005)"
    PERFORMER "Armin van Buuren"
    FILE "01_armin_van_buuren_-_a_state_of_trance_194_(di.fm)_28-04-2005-tt.mp3" MP3
      TRACK 01 AUDIO
        PERFORMER "Thomas Datt"
        TITLE "Alone (Rober Nickson Intro Edit)"
        INDEX 01 00:00:00
      TRACK 02 AUDIO
        PERFORMER "Niklas Harding presents Arcane"
        TITLE "Ice Beach (Tune of The Week)"
        INDEX 01 07:15:20
      TRACK 03 AUDIO
        PERFORMER "Split Second"
        TITLE "Midnight Express"
        INDEX 01 13:25:50
      TRACK 04 AUDIO
        PERFORMER "Binary Finary and Jose Amnesia presents Cloudbreak"
        TITLE "Difference"
        INDEX 01 19:22:30
      TRACK 05 AUDIO
        PERFORMER "Walsh and Coutre featuring Holly"
        TITLE "Burn"
        INDEX 01 22:34:40
      TRACK 06 AUDIO
        PERFORMER "Perry O'Neil"
        TITLE "Gravity"
        INDEX 01 26:36:30
      TRACK 07 AUDIO
        PERFORMER "Mike Foyle vs. Signal Runners"
        TITLE "Love Theme Dusk (Airbase presents Parc Remix)"
        INDEX 01 31:00:00
      TRACK 08 AUDIO
        PERFORMER "Matthew Dekay vs. Prolucters"
        TITLE "Bad"
        INDEX 01 33:50:73
      TRACK 09 AUDIO
        PERFORMER "Armin van Buuren"
        TITLE "Shivers (Alex M.O.R.P.H. Red Light Dub)"
        INDEX 01 38:05:30
      TRACK 10 AUDIO
        PERFORMER "C-Quence"
        TITLE "Endorphine"
        INDEX 01 44:42:50
      TRACK 11 AUDIO
        PERFORMER "Filterheadz"
        TITLE "Cartagena"
        INDEX 01 51:22:50
      TRACK 12 AUDIO
        PERFORMER "Clear and Present"
        TITLE "Elevate (John O'Callaghan Remix)"
        INDEX 01 54:26:40
      TRACK 13 AUDIO
        PERFORMER "Zirens"
        TITLE "Utopia (Gavin Mitchell Remix)"
        INDEX 01 61:25:05
      TRACK 14 AUDIO
        PERFORMER "Motorcycle"
        TITLE "Around you"
        INDEX 01 65:54:50
      TRACK 15 AUDIO
        PERFORMER "Leon Bolier"
        TITLE "Beyond"
        INDEX 01 69:40:60
      TRACK 16 AUDIO
        PERFORMER "J.P.L."
        TITLE "A place called home (Passiva Remix)"
        INDEX 01 74:55:60
      TRACK 17 AUDIO
        PERFORMER "Deep Voice"
        TITLE "Alone again"
        INDEX 01 77:46:00
      TRACK 18 AUDIO
        PERFORMER "Thomas Bronszwaer"
        TITLE "Close Horizon"
        INDEX 01 81:46:50
      TRACK 19 AUDIO
        PERFORMER "M.I.K.E."
        TITLE "Fuego Caliente"
        INDEX 01 88:43:60
      TRACK 20 AUDIO
        PERFORMER "Lennox"
        TITLE "Servants of Justice (Alex M.O.R.P.H. Remix)"
        INDEX 01 95:12:30
      TRACK 21 AUDIO
        PERFORMER "Airbiscuit"
        TITLE "Lately (Riley and Durrant Remix)"
        INDEX 01 99:49:30
      TRACK 22 AUDIO
        PERFORMER "Ron van den Beuken"
        TITLE "Sunset (Original Mix)"
        INDEX 01 106:38:70
      TRACK 23 AUDIO
        PERFORMER "Union Jack"
        TITLE "Two Full Moons and a Trout (Fred Baker Remix)"
        INDEX 01 111:57:50
      TRACK 24 AUDIO
        PERFORMER "O.H.M. Boys"
        TITLE "Atlantis (Stoneface and Terminal Remix)"
        INDEX 01 117:50:00
    INFO "CUE Created By http://music.anuga.se/"
    .:: Kero ::.
    Por consultas del foro, dirigirse a Julian

  2. #2
    Fecha de ingreso
    17 enero 2005
    Ubicación
    Capital Federal
    Edad
    26
    Agradecimientos

    Re: Armin Van Buuren - A State Of Trance 194 (28-04-2005)

    muy buena info... ahora tengo una duda existencial (??) como es el tema de los CUES para ke sirven? es algo asi como el tracklist?

  3. #3
    Fecha de ingreso
    19 septiembre 1997
    Ubicación
    Ciudad Autónoma de Buenos Aires
    Agradecimientos

    Re: Armin Van Buuren - A State Of Trance 194 (28-04-2005)

    Cita Iniciado por rada
    muy buena info... ahora tengo una duda existencial (??) como es el tema de los CUES para ke sirven? es algo asi como el tracklist?
    http://www.imespasa.com/Pages/Manual...chivos_cue.htm
    .:: Kero ::.
    Por consultas del foro, dirigirse a Julian

  4. #4
    Fecha de ingreso
    23 octubre 2004
    Ubicación
    capital federal
    Agradecimientos

    Re: Armin Van Buuren - A State Of Trance 194 (28-04-2005)

    che keru....te olvidaste el link....o todavia no esta?????
    nicolás
    [email protected]

  5. #5
    Fecha de ingreso
    25 abril 2005
    Ubicación
    Baires City
    Edad
    29
    Agradecimientos

    Re: Armin Van Buuren - A State Of Trance 194 (28-04-2005)

    gracias !!

    muy buena pag...
    [FONT=Palatino Linotype][FONT="Fixedsys"]14.01.06 Volvimos a bailar[/FONT] [/FONT]

  6. #6
    Fecha de ingreso
    16 octubre 2004
    Ubicación
    buenos aires
    Edad
    32
    Agradecimientos

    Re: Armin Van Buuren - A State Of Trance 194 (28-04-2005)

    muchas gracias kerooooooo no me canso de agradecerte por eso jejejej

    IDOLOOOOOOOO
    gªs†y²
    NC Desvirtuation Team!
    [FONT="Times New Roman"] maniha squad [/FONT]

  7. #7
    Fecha de ingreso
    15 noviembre 2004
    Ubicación
    Palermo
    Edad
    31
    Agradecimientos

    Re: Armin Van Buuren - A State Of Trance 194 (28-04-2005)

    gracias kero!....

  8. #8
    Fecha de ingreso
    19 septiembre 1997
    Ubicación
    Ciudad Autónoma de Buenos Aires
    Agradecimientos

    Re: Armin Van Buuren - A State Of Trance 194 (28-04-2005)

    tracklist and torrents added
    .:: Kero ::.
    Por consultas del foro, dirigirse a Julian

  9. #9
    Fecha de ingreso
    04 agosto 2004
    Ubicación
    Belgrano
    Edad
    35
    Agradecimientos

    Re: Armin Van Buuren - A State Of Trance 194 (28-04-2005)

    Como siempre toda la info de los ASOT's Kero!!!

    Muchas graciasssssssssssss
    [FONT=Arial Black]::: contact:::
    [/FONT]
    [email protected]

  10. #10
    Fecha de ingreso
    23 octubre 2004
    Ubicación
    capital federal
    Agradecimientos

    Re: Armin Van Buuren - A State Of Trance 194 (28-04-2005)

    ahi vaa!!!!



    GRANDE PA!
    nicolás
    [email protected]

  11. #11
    Fecha de ingreso
    20 octubre 2004
    Ubicación
    Capital Federal
    Edad
    49
    Agradecimientos

    Re: Armin Van Buuren - A State Of Trance 194 (28-04-2005)

    Este episodio fue IMPRESIONANTE!! Pasó temas que van a tener mucho futuro, 02. Niklas Harding presents Arcane - Ice Beach (White) [TUNE OF THE WEEK] TEMAZO!!
    30/12/2004 - No olvidarse, nos pudo tocar...

  12. #12
    Fecha de ingreso
    31 agosto 2004
    Ubicación
    Lanus Oeste
    Edad
    34
    Agradecimientos

    Gracioso Re: Armin Van Buuren - A State Of Trance 194 (28-04-2005)

    jajjaj gracias kero
    This is...

  13. #13
    Fecha de ingreso
    13 noviembre 2004
    Ubicación
    Floresta
    Agradecimientos

    Re: Armin Van Buuren - A State Of Trance 194 (28-04-2005)

    el cue del de di.fm lo tenes??
    gracias

  14. #14
    Fecha de ingreso
    19 septiembre 1997
    Ubicación
    Ciudad Autónoma de Buenos Aires
    Agradecimientos

    Re: Armin Van Buuren - A State Of Trance 194 (28-04-2005)

    cue added
    .:: Kero ::.
    Por consultas del foro, dirigirse a Julian

  15. #15
    Fecha de ingreso
    11 diciembre 2004
    Ubicación
    Cap Fed
    Agradecimientos

    Re: Armin Van Buuren - A State Of Trance 194 (28-04-2005)

    Gracias naftulia! Ahora puedo bajar cosas tranquilo ;-) Tengo que esperar 19hs para que empieze a bajar =(

  16. #16
    Fecha de ingreso
    17 enero 2005
    Ubicación
    Capital Federal
    Edad
    26
    Agradecimientos

    Re: Armin Van Buuren - A State Of Trance 194 (28-04-2005)

    muchisimas gracias... se agradece = )

Etiquetas para este tema

Información de tema

Usuarios viendo este tema

Actualmente hay 1 usuarios viendo este tema. (0 miembros y 1 visitantes)

Temas similares

  1. Armin van Buuren - State of trance @ Mad (2-12-2005)
    Por DEEPEST_LUKE en el foro SETs
    Respuestas: 3
    Último mensaje: sábado 17 diciembre de 2005, 19:54
  2. Respuestas: 3
    Último mensaje: martes 15 noviembre de 2005, 00:02
  3. Respuestas: 17
    Último mensaje: martes 25 octubre de 2005, 02:30
  4. Respuestas: 0
    Último mensaje: viernes 14 octubre de 2005, 16:27
  5. Respuestas: 31
    Último mensaje: jueves 31 marzo de 2005, 18:14

Permisos de publicación

  • No puedes crear nuevos temas
  • No puedes responder temas
  • No puedes subir archivos adjuntos
  • No puedes editar tus mensajes
  •