Armin Van Buuren - A State Of Trance 193 (21-04-2005)
Resultados 1 al 7 de 7
  1. #1
    Fecha de ingreso
    19 septiembre 1997
    Ubicación
    Ciudad Autónoma de Buenos Aires
    Agradecimientos

    Armin Van Buuren - A State Of Trance 193 (21-04-2005)

    A State of Trance 193
    Your Thursday Night Trance Treatment
    with [FONT=Arial]Armin Van Buuren[/FONT]
    (21-04-2005)


    Como todos los jueves, hoy jueves 21 de abril se transmitió el show en vivo a las 16 hs de Argentina desde http://www.di.fm/trance/info/.
    Acá tienen el tracklist y el torrent para bajarlo, en un rato sale el CUE

    Hay 2 tracklists paralelos, no lo escuché asi que aun no se cual es el posta:

    Tracklist 1:
    1. Mike Foyle vs the Signalrunners - Love Theme Dusk (Intro edit)(Armind)
    2. Dario Nunez - Festen (D-Formation remix)
    3. Perasma - Swing 2 Harmony (Gabriel & Dresden remix) (data)
    4. Rachael Starr - Till there was you (Gabriel & Dresden remix) (Spinnin)
    5. Lucas & Beltram - Trust me (Ava mea remix) (Anjunabeats)
    6. Digital Blues - Definition (Lange)
    7. Perry O Neil - Myst (Hydroid & Santiago de Nino mix) (EE)
    8. Mark Otten - So Serene (Armada)
    9. Armin van Buuren - Shivers (Hammer & Bennett) (Armind)
    10. Marc Marberg - Guarana (Euphonic)
    11. Apogee - Tribal Affair (ASOT)
    12. Pulser - Point of Impact (Fractal Structure remix) (ASOT)
    13. Jonas Steur - Castamara (Fundamental)
    14. Lennox - Servants of Justice (Alex Morph remix) (mondo)
    15. E-Craig - Call it a day 212 PM mix (Spinnin)
    16. Ayana - Shimmer
    17. TUNE OF THE WEEK: Thomas Bronswaer - Close Horizon (Dedicated)
    18. Visior & Dark Moon - Hidden Sun (Mind One mix)
    19. Manny Romero - Compadre (Spinnin)
    20. B&W - Mistaken
    21. Yahel & A-force - Behind Silence (Fundamental)
    22. Ron van Den Beuken - Sunset (RvdB mix) (Spinnin)
    23. Mark Norman - Teardrops (Magik Muzik)
    24. Tiesto - Adagio for Strings (Fred Baker mix) (Magik muzik)

    Tracklist 2:

    01. Mike Foyle vs Signalrunners - Love Theme Dusk (Mike's Broken Record Mix)
    02. Rachel Star vs Perasma - Till There Was Harmony (Gabriel & Dresden Bootleg)
    03. Lucas & Beltram - Trust Me (Ava Mea Remix)
    04. Anthony Class - Emperor (Remix)
    05. Perry O'Neil - Myst (Hydroid & Santiago Nino Remix)
    06. Mark Otten - So Serene
    07. Armin van Buuren - Shivers (Hammer & Bennett Remix)
    08. Mark Marburg - Guarana
    09. Apogee - Tribal Affair (Marcos Remix)
    10. Pulser - Point Of Impact vs Jonas Steur - Castamara (Unknown Bootleg)
    11. Lennox - Servants Of Justice (M.O.R.P.H Remix)
    12. E-Craig - Call It A Day (212 PM Mix)
    13. Ayana - Shimmer
    14. Thomas Bronzwaer - Close Horizon [Tune Of The Week]
    15. Manny Romero - Compadre vs Remy & Roland - Till Ya Drop
    16. Yahel feat A-Force - Behind Silence (Remix)
    17. Ron Van Den Beuken - Sunset
    18. Mark Norman - Teardrops
    19. Tiesto - Adagio For Strings (Fred Baker Remix)


    Download:
    Trancetraffic: http://www.trancetraffic.com/downloa...005-TT.torrent (deben estar registrados en www.trancetraffic.com)
    RIP Data:


    CUE:
    Código:
    TITLE "A State of Trance 193 (21-04-2005)"
    PERFORMER "Armin van Buuren"
    FILE "01_armin_van_buuren_-_a_state_of_trance_193_21-04-2005-tt.mp3" MP3
      TRACK 01 AUDIO
        PERFORMER "Mike Foyle vs. Signalrunners"
        TITLE "Love Theme Dusk (Mike's Broken Record Mix)"
        INDEX 01 00:00:00
      TRACK 02 AUDIO
        PERFORMER "Dario Nunez"
        TITLE "Festen (D-Formation Remix)"
        INDEX 01 06:17:20
      TRACK 03 AUDIO
        PERFORMER "Perasma vs. Rachael Starr"
        TITLE "Swing 2 Harmony vs. Till there was you (Gabriel and Dresden Remixes)"
        INDEX 01 11:13:40
      TRACK 04 AUDIO
        PERFORMER "Lucas and Beltram"
        TITLE "Trust Me (Ava Mea Remix)"
        INDEX 01 16:23:40
      TRACK 05 AUDIO
        PERFORMER "Digital Blues"
        TITLE "Definition"
        INDEX 01 21:33:30
      TRACK 06 AUDIO
        PERFORMER "Perry O'Neil"
        TITLE "Myst (Hydroid and Santiago Nino Remix)"
        INDEX 01 26:28:60
      TRACK 07 AUDIO
        PERFORMER "Mark Otten"
        TITLE "So Serene"
        INDEX 01 31:10:50
      TRACK 08 AUDIO
        PERFORMER "Armin van Buuren"
        TITLE "Shivers (Hammer and Bennett Remix)"
        INDEX 01 37:03:05
      TRACK 09 AUDIO
        PERFORMER "Mark Marburg"
        TITLE "Guarana"
        INDEX 01 43:51:10
      TRACK 10 AUDIO
        PERFORMER "Apogee"
        TITLE "Tribal Affair (Marcos Remix)"
        INDEX 01 48:33:30
      TRACK 11 AUDIO
        PERFORMER "Pulser"
        TITLE "Pulser vs. John Steur (Point of Impact (Fractal Structure Remix) vs. Castamera)"
        INDEX 01 53:52:00
      TRACK 12 AUDIO
        PERFORMER "Lennox"
        TITLE "Servants of Justice (Alex M.O.R.P.H. Remix)"
        INDEX 01 59:56:40
      TRACK 13 AUDIO
        PERFORMER "E-Craig"
        TITLE "Call it a day (E-Craig's ''212'' PM Mix)"
        INDEX 01 66:17:30
      TRACK 14 AUDIO
        PERFORMER "Ayana"
        TITLE "Shimmer"
        INDEX 01 72:41:50
      TRACK 15 AUDIO
        PERFORMER "Thomas Bronswaer"
        TITLE "Close Horizon (Tune of The Week)"
        INDEX 01 78:01:60
      TRACK 16 AUDIO
        PERFORMER "Visior and Dark Moon"
        TITLE "Hidden Sun (Mind One Mix)"
        INDEX 01 85:54:30
      TRACK 17 AUDIO
        PERFORMER "Remy and Roland"
        TITLE "Till ya drop"
        INDEX 01 92:08:00
      TRACK 18 AUDIO
        PERFORMER "Yahel and A-Force"
        TITLE "Behind silence"
        INDEX 01 97:09:50
      TRACK 19 AUDIO
        PERFORMER "Ron van den Beuken"
        TITLE "Sunset (Ron van den Beuken Mix)"
        INDEX 01 102:14:70
      TRACK 20 AUDIO
        PERFORMER "Mark Norman"
        TITLE "Teardrops"
        INDEX 01 109:32:30
      TRACK 21 AUDIO
        PERFORMER "Tiësto"
        TITLE "Adagio for Strings (Fred Baker Mix)"
        INDEX 01 115:04:40
    INFO "CUE Created By http://music.anuga.se/"
    .:: Kero ::.
    Por consultas del foro, dirigirse a Julian

  2. #2
    Fecha de ingreso
    16 octubre 2004
    Ubicación
    buenos aires
    Edad
    32
    Agradecimientos

    Re: Armin Van Buuren - A State Of Trance 193 (21-04-2005)

    muchas gracias keroooooooo

    no lo escuche todavia, asi q espero q te de 10 como siempre

    Un abrazo!!
    gªs†y²
    NC Desvirtuation Team!
    [FONT="Times New Roman"] maniha squad [/FONT]

  3. #3
    Fecha de ingreso
    20 octubre 2004
    Ubicación
    Capital Federal
    Edad
    49
    Agradecimientos

    Re: Armin Van Buuren - A State Of Trance 193 (21-04-2005)

    No solo hay 2 track list paralelos, sino tambien acaban de subir el show pero rippeado a 256 kbps, pesa un poco más http://www.trancetraffic.com/downloa...PER-TT.torrent
    Esperemos que sea el mismo...
    30/12/2004 - No olvidarse, nos pudo tocar...

  4. #4
    Fecha de ingreso
    11 diciembre 2004
    Ubicación
    Cap Fed
    Agradecimientos

    Re: Armin Van Buuren - A State Of Trance 193 (21-04-2005)

    Gracias kero!!! En unas hroas lo bajo, dps de poner disco rigido wiiiiiiiiiiiii!!!!
    Ya escuche el otro dia un pedazo de este set y me gusto.

  5. #5
    Fecha de ingreso
    13 noviembre 2004
    Ubicación
    Floresta
    Agradecimientos

    Re: Armin Van Buuren - A State Of Trance 193 (21-04-2005)

    el torrent viene en un solo archivo mp3 o viene en un zip/rar separado por temas?
    alguno sabe de donde puedo conseguir la duracion de las canciones de otras playlists? y algun programa para dividir un mp3 en varias, asi puedo separar las pistas.
    slds
    Última edición por mauro; sábado 23 abril de 2005 a las 22:43

  6. #6
    Fecha de ingreso
    27 febrero 2005
    Ubicación
    Capital
    Edad
    29
    Agradecimientos

    Re: Armin Van Buuren - A State Of Trance 193 (21-04-2005)

    creo q viene en un solo mp3, bajandote el cue del mp3, lo podes dividir, pero ni idea si hay un cue para este mp3.
    we are the first of cyber evolution,
    we are the first to program your future.

  7. #7
    Fecha de ingreso
    19 septiembre 1997
    Ubicación
    Ciudad Autónoma de Buenos Aires
    Agradecimientos

    Re: Armin Van Buuren - A State Of Trance 193 (21-04-2005)

    cue agregado
    .:: Kero ::.
    Por consultas del foro, dirigirse a Julian

Etiquetas para este tema

Información de tema

Usuarios viendo este tema

Actualmente hay 1 usuarios viendo este tema. (0 miembros y 1 visitantes)

Temas similares

  1. Respuestas: 20
    Último mensaje: jueves 03 mayo de 2007, 12:20
  2. Respuestas: 0
    Último mensaje: viernes 14 octubre de 2005, 16:27
  3. Respuestas: 1
    Último mensaje: jueves 23 junio de 2005, 17:51
  4. Respuestas: 5
    Último mensaje: viernes 15 abril de 2005, 21:26
  5. Respuestas: 10
    Último mensaje: viernes 25 febrero de 2005, 18:37

Permisos de publicación

  • No puedes crear nuevos temas
  • No puedes responder temas
  • No puedes subir archivos adjuntos
  • No puedes editar tus mensajes
  •