Armin Van Buuren - A State Of Trance 192 (14-04-2005)
Resultados 1 al 6 de 6
  1. #1
    Fecha de ingreso
    19 septiembre 1997
    Ubicación
    Ciudad Autónoma de Buenos Aires
    Agradecimientos

    Armin Van Buuren - A State Of Trance 192 (14-04-2005)

    A State of Trance 192
    Your Thursday Night Trance Treatment
    with [FONT=Arial]Armin Van Buuren[/FONT]
    (14-04-2005)


    Como todos los jueves, ayer jueves 14 de abril se transmitió el show en vivo a las 16 hs de Argentina desde http://www.di.fm/trance/info/.
    Acá tienen el tracklist y el torrent para bajarlo, en un rato sale el CUE

    Tracklist:
    01. Unknown Artist - Don't walk away (Cecily Rose mix)
    02. Hydroid - What If (White)
    03. Synergy - Hello Strings (Flash Brothers mix) (Armind)
    04. Perry O Neil - Gravity (EE)
    05. Oliver - Dagoba (Remy mix) (White)
    06. Thomas Datt - Alone (RN intro edit) (Discover)
    07. TUNE OF THE WEEK: Hemstock & Jennings - Babylon (Icone mix) (CDR)
    08. Fred Baker - La Part des Anges (Armada)
    09. System F - Reaching your soul (Tsunami)
    10. Goldenscan - Only with You (ASOT)
    11. Ron van den Beuken - Sunset (Spinnin)
    12. Mark Norman - Teardrops (Magik Muzik)
    13. Mike Foyle vs Signalrunners - Love Theme Dusk (Armada)
    14. Yanave - Amethyst (Deep Blue)
    15. C-quence - Endorphine (White)
    16. Solarium- Venice Under water (M.I.K.E. mix)(White)
    17. Signum - Back @ Ya (ASOT)
    18. Deep Wide - Canyon (Monster tunes)
    19. Motorcycle - Around You (Armind)
    20. Jellisimo & Tim J - My Way (White)
    21. Super 8 vs DJ Tab - First Aid (Anjunabeats)
    22. Tektonik - Shine (DBA mix) (Platipus)
    23. Modena - Resonator (Dedicated)



    Download:
    Trancetraffic: http://www.trancetraffic.com/downloa...005-TT.torrent (deben estar registrados en www.trancetraffic.com)
    RIP Data:
    Release Name: Armin van Buuren - A State Of Trance Episode 192 (14-04-2005)
    Genre.......: Trance
    Source......: TranceTraffic l33t sources
    Rip Date....: 14-04-2005
    Year........: 2005
    Playtime....: 123:28
    Quality.....: 192kbps 44.1khz Joint Stereo

    CUE:
    Código:
    TITLE "A State of Trance 192 (14-04-2005)"
    PERFORMER "Armin van Buuren"
    FILE "01_armin_van_buuren_-_a_state_of_trance_192_14-04-2005-tt.mp3" MP3
      TRACK 01 AUDIO
        TITLE "Don't walk away (Cecily Rose Mix)"
        INDEX 01 00:00:00
      TRACK 02 AUDIO
        PERFORMER "Hydroid"
        TITLE "What if"
        INDEX 01 05:36:55
      TRACK 03 AUDIO
        PERFORMER "Synergy"
        TITLE "Hello Strings (Flash Brothers Remix)"
        INDEX 01 11:01:60
      TRACK 04 AUDIO
        PERFORMER "Perry O'Neil"
        TITLE "Gravity"
        INDEX 01 17:22:40
      TRACK 05 AUDIO
        PERFORMER "Oliver"
        TITLE "Dagobah (Remy Remix)"
        INDEX 01 23:13:05
      TRACK 06 AUDIO
        PERFORMER "Thomas Datt"
        TITLE "Alone (Original Mix)(R.N. Intro Edit)"
        INDEX 01 27:05:00
      TRACK 07 AUDIO
        PERFORMER "Hemstock and Jennings"
        TITLE "Babylon (Icone Remix)(Tune of The Week)"
        INDEX 01 30:57:20
      TRACK 08 AUDIO
        PERFORMER "Fred Baker"
        TITLE "La Part Des Anges"
        INDEX 01 36:40:30
      TRACK 09 AUDIO
        PERFORMER "System F."
        TITLE "Reaching your soul (Original Mix)"
        INDEX 01 41:53:05
      TRACK 10 AUDIO
        PERFORMER "Goldenscan"
        TITLE "Only with you"
        INDEX 01 46:08:45
      TRACK 11 AUDIO
        PERFORMER "Ron van Den Beuken"
        TITLE "Sunset"
        INDEX 01 52:07:20
      TRACK 12 AUDIO
        PERFORMER "Mark Norman"
        TITLE "Teardrops"
        INDEX 01 58:51:50
      TRACK 13 AUDIO
        PERFORMER "Mike Foyle vs. Signalrunners"
        TITLE "Love Theme Dusk (Mike's Broken Record Mix)"
        INDEX 01 64:59:50
      TRACK 14 AUDIO
        PERFORMER "Yanave"
        TITLE "Amethyst"
        INDEX 01 69:43:30
      TRACK 15 AUDIO
        PERFORMER "C-Quence"
        TITLE "Endorphine"
        INDEX 01 75:52:10
      TRACK 16 AUDIO
        PERFORMER "Solarium"
        TITLE "Venice underwater (M.I.K.E. Voyages Mix)"
        INDEX 01 81:36:15
      TRACK 17 AUDIO
        PERFORMER "Signum"
        TITLE "Back @ Ya"
        INDEX 01 88:55:20
      TRACK 18 AUDIO
        PERFORMER "Deep Wide"
        TITLE "Canyon"
        INDEX 01 94:35:40
      TRACK 19 AUDIO
        PERFORMER "Motorcycle"
        TITLE "Around you"
        INDEX 01 99:18:60
      TRACK 20 AUDIO
        PERFORMER "Jellisimo and Tim J."
        TITLE "My way"
        INDEX 01 103:34:00
      TRACK 21 AUDIO
        PERFORMER "Super 8 vs. Tab"
        TITLE "First Aid"
        INDEX 01 108:29:00
      TRACK 22 AUDIO
        PERFORMER "Tektonik"
        TITLE "Shine (D.B.A. Remix)"
        INDEX 01 112:54:60
      TRACK 23 AUDIO
        PERFORMER "Modena"
        TITLE "Resonator"
        INDEX 01 117:20:20
    INFO "CUE Created By http://tracklists.anuga.se/"
    .:: Kero ::.
    Por consultas del foro, dirigirse a Julian

  2. #2
    Fecha de ingreso
    19 septiembre 1997
    Ubicación
    Ciudad Autónoma de Buenos Aires
    Agradecimientos

    Re: Armin Van Buuren - A State Of Trance 192 (14-04-2005)

    cue added
    .:: Kero ::.
    Por consultas del foro, dirigirse a Julian

  3. #3
    Fecha de ingreso
    20 octubre 2004
    Ubicación
    Capital Federal
    Edad
    49
    Agradecimientos

    Re: Armin Van Buuren - A State Of Trance 192 (14-04-2005)

    Gracias Sr, como siempre!! Los jueves y viernes son diferentes con este muchacho, la expectativa del programa y al otro día escucharlo, para mi es una linda rutina...
    30/12/2004 - No olvidarse, nos pudo tocar...

  4. #4
    Fecha de ingreso
    16 enero 2005
    Ubicación
    Recolettta
    Agradecimientos

    Re: Armin Van Buuren - A State Of Trance 192 (14-04-2005)

    graciasss =)... downloding...
    We Are Accidents Waiting To Happen* www.myspace.com/vuenos_ayres

  5. #5
    Fecha de ingreso
    05 diciembre 2004
    Ubicación
    haedo
    Edad
    33
    Agradecimientos

    Re: Armin Van Buuren - A State Of Trance 192 (14-04-2005)

    jueves.. el dia mas leendo de la semanaaa

  6. #6
    Fecha de ingreso
    23 octubre 2004
    Ubicación
    capital federal
    Agradecimientos

    Re: Armin Van Buuren - A State Of Trance 192 (14-04-2005)

    sehhhhhhh.......AGUANTEE

    lo estaba esperando

Etiquetas para este tema

Información de tema

Usuarios viendo este tema

Actualmente hay 1 usuarios viendo este tema. (0 miembros y 1 visitantes)

Temas similares

  1. Respuestas: 20
    Último mensaje: jueves 03 mayo de 2007, 12:20
  2. Respuestas: 0
    Último mensaje: viernes 14 octubre de 2005, 16:27
  3. Respuestas: 1
    Último mensaje: jueves 23 junio de 2005, 17:51
  4. Respuestas: 8
    Último mensaje: jueves 19 mayo de 2005, 15:24
  5. Respuestas: 10
    Último mensaje: viernes 25 febrero de 2005, 18:37

Permisos de publicación

  • No puedes crear nuevos temas
  • No puedes responder temas
  • No puedes subir archivos adjuntos
  • No puedes editar tus mensajes
  •