Armin Van Buuren - A State Of Trance 191 (07-04-2005)

-- Publicidad --

Delta 90.3

Resultados 1 al 8 de 8
  1. #1
    Fecha de ingreso
    19 septiembre 1997
    Ubicación
    Ciudad Autónoma de Buenos Aires
    Agradecimientos

    Armin Van Buuren - A State Of Trance 191 (07-04-2005)

    A State of Trance 191
    Your Thursday Night Trance Treatment
    with [FONT=Arial]Armin Van Buuren[/FONT]
    (07-04-2005)


    Como todos los jueves, hoy jueves 5 de abril se transmitió el show en vivo a las 16 hs de Argentina desde http://www.di.fm/trance/info/.
    Acá tienen el tracklist y el torrent para bajarlo, en un rato sale el CUE

    Tracklist:
    01. Split Second - Midnight Express
    02. Walsh & Coutre featuring Holly - Burn
    03. Harry Lemon - Tiga (Harry's Triple T Mix)
    04. Ava Mea - In The End (Hydroid vs Santiago Nino Remix)
    05. Hydroid - Pacifica
    06. Sublunar - Sanctuary (Antidote's Tech Mix)
    07. Arizona vs Passiva - Halo (Danjo & Styles Remix)
    08. 4 Strings - Sunrise (Tune Of The Week)
    09. Electrovoya - Days Like These
    10. Hemstock & Jennings - Babylon (Icone Remix)
    11. Ernesto vs Bastian - Darkside Of The Moon (Dogzilla Remix)
    12. Motorcycle - Around You
    13. Tiesto - Adagio For Strings (Danjo & Styles Remix)
    14. Slip Friction - Crazy
    15. Signum - Ya Face
    16. Van Gelder - Everywhere
    17. Brian Cross - 4U (O.R.G.A.N. Remix)
    18. Matt Darey - Liberation (Deep Dub)
    19. Hammer & Bennett - Language (Santiago Nino Dub Tech Mix)
    20. Cosmic Gate - Virtual Discotech
    21. Eye Wall - Bad Deal



    Download:
    Trancetraffic: http://www.trancetraffic.com/downloa...005-TT.torrent (deben estar registrados en www.trancetraffic.com)

    CUE:
    Código:
    TITLE "A State of Trance 191 (07-04-2005)"
    PERFORMER "Armin van Buuren"
    FILE "01_armin_van_buuren_-_a_state_of_trance_191_07-04-2005-tt.mp3" MP3
      TRACK 01 AUDIO
        PERFORMER "Split Second"
        TITLE "Midnight Express"
        INDEX 01 00:00:00
      TRACK 02 AUDIO
        PERFORMER "Walsh and Coutre featuring Holly"
        TITLE "Burn"
        INDEX 01 07:08:20
      TRACK 03 AUDIO
        PERFORMER "Harry Lemon"
        TITLE "Tiga (Harry's Triple T. Mix)"
        INDEX 01 13:00:15
      TRACK 04 AUDIO
        PERFORMER "Ava Mea"
        TITLE "In The End (Santiago Nino vs. Hydriod Mix)"
        INDEX 01 18:12:65
      TRACK 05 AUDIO
        PERFORMER "Hydroid"
        TITLE "Pacifica"
        INDEX 01 24:08:60
      TRACK 06 AUDIO
        PERFORMER "Sublunar"
        TITLE "Sanctuary (Antidote's Tech Mix)"
        INDEX 01 29:06:45
      TRACK 07 AUDIO
        PERFORMER "Arizona vs. Passiva"
        TITLE "Halo (Danjo and Rob Styles Mix)"
        INDEX 01 32:11:40
      TRACK 08 AUDIO
        PERFORMER "4 Strings"
        TITLE "Sunrise (Tune of The Week)"
        INDEX 01 37:50:40
      TRACK 09 AUDIO
        PERFORMER "Electrovoya"
        TITLE "Days like these"
        INDEX 01 43:50:45
      TRACK 10 AUDIO
        PERFORMER "Hemstock and Jennings"
        TITLE "Babylon (Icone Remix)"
        INDEX 01 48:18:60
      TRACK 11 AUDIO
        PERFORMER "Ernesto vs. Bastian"
        TITLE "Dark Side of The Moon (Dogzilla's Pure Filth Remix)"
        INDEX 01 54:50:45
      TRACK 12 AUDIO
        PERFORMER "Motorcycle"
        TITLE "Around you"
        INDEX 01 61:25:60
      TRACK 13 AUDIO
        PERFORMER "Tiësto"
        TITLE "Adagio for Strings (Danjo and Rob Styles Mix)"
        INDEX 01 66:06:10
      TRACK 14 AUDIO
        PERFORMER "Slip Friction"
        TITLE "Crazy"
        INDEX 01 74:59:20
      TRACK 15 AUDIO
        PERFORMER "Signum"
        TITLE "In ya face"
        INDEX 01 80:19:20
      TRACK 16 AUDIO
        PERFORMER "Van Gelder"
        TITLE "Everywhere"
        INDEX 01 86:19:65
      TRACK 17 AUDIO
        PERFORMER "Brian Cross"
        TITLE "For you (O.R.G.A.N. Mix)"
        INDEX 01 90:55:45
      TRACK 18 AUDIO
        PERFORMER "Matt Darey"
        TITLE "Liberation (Deep Dub)"
        INDEX 01 96:45:65
      TRACK 19 AUDIO
        PERFORMER "Hammer and Bennett"
        TITLE "Language (Santiago Nino Dub Tech Mix)"
        INDEX 01 102:18:30
      TRACK 20 AUDIO
        PERFORMER "64 Bit"
        TITLE "Virtual Discotech (Cosmic Gate Remix)"
        INDEX 01 108:32:65
      TRACK 21 AUDIO
        PERFORMER "Eye Wall"
        TITLE "Bad Deal"
        INDEX 01 113:17:30
    INFO "CUE Created By http://tracklists.anuga.se/"
    .:: Kero ::.
    Por consultas del foro, dirigirse a Julian

  2. #2
    Fecha de ingreso
    16 octubre 2004
    Ubicación
    buenos aires
    Edad
    32
    Agradecimientos

    Re: Armin Van Buuren - A State Of Trance 191 (07-04-2005)

    NOOOOOO HERMOSISIMOOOOOO

    AL FINNNNNNN LA PUTA MADRE! "DARK SIDE OF THE MOON" lo keria escuchar pero no sabia en q set lo tenia

    Arreeeeeeeeeeeeeeeeeeba

    Muchisimas gracias kero
    gªs†y²
    NC Desvirtuation Team!
    [FONT="Times New Roman"] maniha squad [/FONT]

  3. #3
    Fecha de ingreso
    05 diciembre 2004
    Ubicación
    haedo
    Edad
    33
    Agradecimientos

    Re: Armin Van Buuren - A State Of Trance 191 (07-04-2005)

    wenisimoo :d

  4. #4
    Fecha de ingreso
    31 agosto 2004
    Ubicación
    Lanus Oeste
    Edad
    35
    Agradecimientos

    Gracioso Re: Armin Van Buuren - A State Of Trance 191 (07-04-2005)

    buenisimo kero.. !!!

    Abajar se ha dicho
    This is...

  5. #5
    Fecha de ingreso
    04 agosto 2004
    Ubicación
    Capital Federal
    Edad
    28
    Agradecimientos

    Re: Armin Van Buuren - A State Of Trance 191 (07-04-2005)

    no me gustan mas los asots... son tods iguales.. y ese estilo de trance.. no me gusta.. es re




  6. #6
    Fecha de ingreso
    19 septiembre 1997
    Ubicación
    Ciudad Autónoma de Buenos Aires
    Agradecimientos

    Re: Armin Van Buuren - A State Of Trance 191 (07-04-2005)

    Cita Iniciado por juan_smile
    no me gustan mas los asots... son tods iguales.. y ese estilo de trance.. no me gusta.. es re
    puede ser, ne parte es verdad, los asots que vienen seguido son smilares, pero es una buena forma de estar "al día" con el trance de moda europeo
    .:: Kero ::.
    Por consultas del foro, dirigirse a Julian

  7. #7
    Fecha de ingreso
    20 octubre 2004
    Ubicación
    Capital Federal
    Edad
    49
    Agradecimientos

    Re: Armin Van Buuren - A State Of Trance 191 (07-04-2005)

    Lo terminé de escuchar hace un rato, hermoso el mix de Adagio For Strings!!
    30/12/2004 - No olvidarse, nos pudo tocar...

  8. #8
    Fecha de ingreso
    19 septiembre 1997
    Ubicación
    Ciudad Autónoma de Buenos Aires
    Agradecimientos

    Re: Armin Van Buuren - A State Of Trance 191 (07-04-2005)

    cue added
    fuente: http://tracklists.anuga.se/
    .:: Kero ::.
    Por consultas del foro, dirigirse a Julian

Etiquetas para este tema

Información de tema

Usuarios viendo este tema

Actualmente hay 1 usuarios viendo este tema. (0 miembros y 1 visitantes)

Temas similares

  1. Respuestas: 20
    Último mensaje: jueves 03 mayo de 2007, 11:20
  2. Respuestas: 0
    Último mensaje: viernes 14 octubre de 2005, 15:27
  3. Respuestas: 1
    Último mensaje: jueves 23 junio de 2005, 16:51
  4. Respuestas: 5
    Último mensaje: viernes 15 abril de 2005, 20:26
  5. Respuestas: 10
    Último mensaje: viernes 25 febrero de 2005, 17:37

Permisos de publicación

  • No puedes crear nuevos temas
  • No puedes responder temas
  • No puedes subir archivos adjuntos
  • No puedes editar tus mensajes
  •