Armin Van Buuren - A State Of Trance 190 (31-03-2005)
Resultados 1 al 15 de 15
  1. #1
    Fecha de ingreso
    19 septiembre 1997
    Ubicación
    Ciudad Autónoma de Buenos Aires
    Agradecimientos

    Armin Van Buuren - A State Of Trance 190 (31-03-2005)

    A State of Trance 190
    Your Thursday Night Trance Treatment
    with [FONT=Arial]Armin Van Buuren[/FONT]
    (31-03-2005)


    Serving the Global Trance Airways, this is a new episode of a state of trance, I am Armin, and tonight a two hour mix of the hottest tracks that where hot in Miami, during the Winter Music Conference, a non-stop mix tonight

    Como todos los jueves, hoy jueves 31 de marzo se transmitió el show en vivo a las 16 hs de Argentina desde http://www.di.fm/trance/info/.
    Acña tienen el tracklist, en un rato consigo el Download y el CUE

    Tracklist:
    01 - Walsh & Coutre featuring Holly - Burn
    02 - Deep Dish - Say Hello [TUNE OF THE WEEK]
    03 - Mark Otten - So Serene
    04 - Luminary - My World (Hydroid Remix)
    05 - C-Quence - Endorphine
    06 - Mike Foyle vs Signalrunners - Love Theme Dusk (Mike's Broken Record Mix)
    07 - ID
    08 - First & Andre - Widescreen
    09 - Motorcycle - Around You
    10 - Fred Baker - La Part des Anges
    11 - Synergy - Hello Strings (Flash Brothers Remix)
    12 - Armin van Buuren - Birth Of An Angel
    13 - Goldenscan - Only With You
    14 - Yahel Feat. A-Force - Behinde Silence vs. B&W - Mistaken (Fictivision Mix)(Bootleg)
    15 - Airbiscuit - Lately (Riley & Durrant Remix)
    16 - Purple Haze - Adrenalin
    17 - Marco V - More Than A Life Away
    18 - Jellisimo & Tim J - My Way
    19 - ID
    20 - Fire & Ice - Let There Be Light (Primer Remix)


    Download:
    Trancetraffic: http://www.trancetraffic.com/downloa...005-TT.torrent (deben estar registrados en www.trancetraffic.com)

    CUE:
    Código:
    TITLE "A State of Trance 190 (31-03-2005)"
    PERFORMER "Armin van Buuren"
    FILE "01_armin_van_buuren_-_a_state_of_trance_190_31-03-2005-tt.mp3" MP3
      TRACK 01 AUDIO
        PERFORMER "Walsh and Coutre featuring Holly"
        TITLE "Burn"
        INDEX 01 00:00:00
      TRACK 02 AUDIO
        PERFORMER "Deep Dish"
        TITLE "Say Hello (Tune of The Week)"
        INDEX 01 09:21:30
      TRACK 03 AUDIO
        PERFORMER "Mark Otten"
        TITLE "So serene"
        INDEX 01 15:51:20
      TRACK 04 AUDIO
        PERFORMER "Luminary"
        TITLE "My world (Hydroid Remix)"
        INDEX 01 22:49:60
      TRACK 05 AUDIO
        PERFORMER "C-Quence"
        TITLE "Endorphine"
        INDEX 01 26:52:30
      TRACK 06 AUDIO
        PERFORMER "Mike Foyle vs. Signalrunners"
        TITLE "Love Theme Dusk (Mike's Broken Record Mix)"
        INDEX 01 33:34:65
      TRACK 07 AUDIO
        TITLE "ID"
        INDEX 01 40:00:20
      TRACK 08 AUDIO
        PERFORMER "First and Andre"
        TITLE "Widescreen"
        INDEX 01 45:00:05
      TRACK 09 AUDIO
        PERFORMER "Motorcycle"
        TITLE "Around you"
        INDEX 01 51:32:70
      TRACK 10 AUDIO
        PERFORMER "Fred Baker"
        TITLE "La Part des Anges"
        INDEX 01 56:23:60
      TRACK 11 AUDIO
        PERFORMER "Synergy"
        TITLE "Hello Strings (Flash Brothers Remix)"
        INDEX 01 64:06:10
      TRACK 12 AUDIO
        PERFORMER "Armin van Buuren"
        TITLE "Birth of an Angel"
        INDEX 01 67:50:30
      TRACK 13 AUDIO
        PERFORMER "Goldenscan"
        TITLE "Only with you"
        INDEX 01 74:34:40
      TRACK 14 AUDIO
        PERFORMER "Yahel featuring A-Force vs. B. and W."
        TITLE "Behinde Silence vs. Mistaken (Fictivision Mix)"
        INDEX 01 82:15:05
      TRACK 15 AUDIO
        PERFORMER "Airbiscuit"
        TITLE "Lately (Riley and Durrant Remix)"
        INDEX 01 86:23:45
      TRACK 16 AUDIO
        PERFORMER "Purple Haze"
        TITLE "Adrenalin"
        INDEX 01 90:46:15
      TRACK 17 AUDIO
        PERFORMER "Marco V."
        TITLE "More than a life away (Original Mix)"
        INDEX 01 96:57:30
      TRACK 18 AUDIO
        PERFORMER "Jellisimo and Tim J."
        TITLE "My way"
        INDEX 01 102:40:50
      TRACK 19 AUDIO
        TITLE "ID"
        INDEX 01 106:44:30
      TRACK 20 AUDIO
        PERFORMER "Fire and Ice"
        TITLE "Let there be light (Primer Remix)"
        INDEX 01 111:20:50
    INFO "CUE Created By http://tracklists.anuga.se/"
    .:: Kero ::.
    Por consultas del foro, dirigirse a Julian

  2. #2
    Fecha de ingreso
    20 octubre 2004
    Ubicación
    Capital Federal
    Edad
    49
    Agradecimientos

    Re: Armin Van Buuren - A State Of Trance 190 (31-03-2005)

    Que interesante!! Mandó Hello Strings en el medio del set, Around You es tema de mitad seguro, salvo que salga otro remix y Lately (tema con un futuro TREMENDO) más al final.
    Como siempre GRACIAS SR!! Espero con ansiedad la madrugada (tal vez mañana temprano) para que aparezca el torrent.
    30/12/2004 - No olvidarse, nos pudo tocar...

  3. #3
    Fecha de ingreso
    19 septiembre 1997
    Ubicación
    Ciudad Autónoma de Buenos Aires
    Agradecimientos

    Re: Armin Van Buuren - A State Of Trance 190 (31-03-2005)

    yo como el más boludo me olvidé de escucharlo grrrrrrrrrrrrrr
    igual estaba en el médico
    .:: Kero ::.
    Por consultas del foro, dirigirse a Julian

  4. #4
    Fecha de ingreso
    04 agosto 2004
    Ubicación
    Capital Federal
    Edad
    27
    Agradecimientos

    Re: Armin Van Buuren - A State Of Trance 190 (31-03-2005)

    mañana lo escucho




  5. #5
    Fecha de ingreso
    20 octubre 2004
    Ubicación
    Capital Federal
    Edad
    49
    Agradecimientos

    Re: Armin Van Buuren - A State Of Trance 190 (31-03-2005)

    Y yo para escucharlo en vivo me tendría que hacer el boludo los jueves y faltar al laburo o en su defecto hacer una obra de bien y comprar unos parlantitos para la PC e ir escuchándolo en la oficina. Lo escucharé por la noche/madrugada cuando haya mas seeders en linea...
    30/12/2004 - No olvidarse, nos pudo tocar...

  6. #6
    Fecha de ingreso
    20 octubre 2004
    Ubicación
    Capital Federal
    Edad
    49
    Agradecimientos

    Re: Armin Van Buuren - A State Of Trance 190 (31-03-2005)

    http://www.trancetraffic.com/downloa...005-TT.torrent
    Dejo el torrent para que lo edites Kero!! El anterior lo sacaron del server de Trance Traffic...
    30/12/2004 - No olvidarse, nos pudo tocar...

  7. #7
    Fecha de ingreso
    19 septiembre 1997
    Ubicación
    Ciudad Autónoma de Buenos Aires
    Agradecimientos

    Re: Armin Van Buuren - A State Of Trance 190 (31-03-2005)

    cue added
    .:: Kero ::.
    Por consultas del foro, dirigirse a Julian

  8. #8
    Fecha de ingreso
    06 enero 2005
    Ubicación
    Capital Federal
    Edad
    35
    Agradecimientos

    Re: Armin Van Buuren - A State Of Trance 190 (31-03-2005)

    Yo lo escuche, esta tremendo este set... asi que ahora mismo me lo bajo!!! gracias kero... salu2

  9. #9
    Fecha de ingreso
    04 agosto 2004
    Ubicación
    Capital Federal
    Edad
    27
    Agradecimientos

    Re: Armin Van Buuren - A State Of Trance 190 (31-03-2005)

    me re colgue.. no lo vi nada.. pero bueno, son todos los asot iguales..




  10. #10
    Fecha de ingreso
    19 septiembre 1997
    Ubicación
    Ciudad Autónoma de Buenos Aires
    Agradecimientos

    Re: Armin Van Buuren - A State Of Trance 190 (31-03-2005)

    Serving the Global Trance Airways, this is a new episode of a state of trance, I am Armin, and tonight a two hour mix of the hottest tracks that where hot in Miami, during the Winter Music Conference, a non-stop mix tonight
    .:: Kero ::.
    Por consultas del foro, dirigirse a Julian

  11. #11
    Fecha de ingreso
    04 agosto 2004
    Ubicación
    Capital Federal
    Edad
    36
    Agradecimientos

    Re: Armin Van Buuren - A State Of Trance 190 (31-03-2005)

    No me funcionaron los Sources de los dos links posteados. Quizas podriamos editar los mensajes de arriba en el caso que haya un source funcionando. Mientras tanto cierro.

  12. #12
    Fecha de ingreso
    02 junio 1998
    Ubicación
    Plus Ultra
    Agradecimientos

    Re: Armin Van Buuren - A State Of Trance 190 (31-03-2005)

    Cita Iniciado por Carlosnik
    No me funcionaron los Sources de los dos links posteados. Quizas podriamos editar los mensajes de arriba en el caso que haya un source funcionando. Mientras tanto cierro.
    Fijate aca, anda bien este:

    Download:
    Trancetraffic: http://www.trancetraffic.com/downloa...005-TT.torrent (deben estar registrados en www.trancetraffic.com)

  13. #13
    Fecha de ingreso
    29 septiembre 2004
    Ubicación
    Bs As
    Agradecimientos

    Re: Armin Van Buuren - A State Of Trance 190 (31-03-2005)

    este también anda bien, gente

    http://www.mininova.org/get/24327/Ar...ISODE%20190%20[31.03.2005].torrent

    enjoy y exitos!!!!!!!!!!!!!!!!!!!!

    :wink:

    VJ MODE y proximos Gigs
    www.myspace.com/d3mian

  14. #14
    Fecha de ingreso
    11 noviembre 2004
    Ubicación
    adsasdasdasdasd
    Agradecimientos

    Re: Armin Van Buuren - A State Of Trance 190 (31-03-2005)

    Cita Iniciado por D3mian
    este también anda bien, gente

    http://www.mininova.org/get/24327/Ar...ISODE%20190%20[31.03.2005].torrent

    enjoy y exitos!!!!!!!!!!!!!!!!!!!!

    :wink:
    Thanks a lot, Demian......de TRANCETRAFFIC jamas me pude bajar nada...no puedo configurar el port.

  15. #15
    Fecha de ingreso
    19 septiembre 1997
    Ubicación
    Ciudad Autónoma de Buenos Aires
    Agradecimientos

    Re: Armin Van Buuren - A State Of Trance 190 (31-03-2005)

    Cita Iniciado por CAKERO
    Thanks a lot, Demian......de TRANCETRAFFIC jamas me pude bajar nada...no puedo configurar el port.
    ahora te explico por msn
    .:: Kero ::.
    Por consultas del foro, dirigirse a Julian

Etiquetas para este tema

Información de tema

Usuarios viendo este tema

Actualmente hay 1 usuarios viendo este tema. (0 miembros y 1 visitantes)

Temas similares

  1. Respuestas: 20
    Último mensaje: jueves 03 mayo de 2007, 12:20
  2. Respuestas: 0
    Último mensaje: viernes 14 octubre de 2005, 16:27
  3. Respuestas: 1
    Último mensaje: jueves 23 junio de 2005, 17:51
  4. Respuestas: 5
    Último mensaje: viernes 15 abril de 2005, 21:26
  5. Respuestas: 10
    Último mensaje: viernes 25 febrero de 2005, 18:37

Permisos de publicación

  • No puedes crear nuevos temas
  • No puedes responder temas
  • No puedes subir archivos adjuntos
  • No puedes editar tus mensajes
  •