Armin Van Buuren - A State Of Trance 188 (17-03-2005)

-- Publicidad --

Aftercluv 2

Resultados 1 al 19 de 19
  1. #1
    Fecha de ingreso
    19 septiembre 1997
    Ubicación
    Ciudad Autónoma de Buenos Aires
    Agradecimientos

    Armin Van Buuren - A State Of Trance 188 (17-03-2005)

    A State of Trance 188
    Your Thursday Night Trance Treatment
    with [FONT=Arial]Armin Van Buuren[/FONT]
    (17-03-2005)


    Hoy jueves 17 de marzo podrán escuchar el show en vivo a las 16 hs de Argentina en http://www.di.fm/trance/info/ eligiendo entre winamp y WMP y diferentes streams segun la conexion de cada uno . Luego del show, posteo el tracklist, el torrent para bajarlo y dsps el CUE.

    Tracklist:
    01. Synergy - Hello strings (Flash Brothers Mix)
    02. Mark Otten - So serene
    03. D-Fuse featuring Jes - Living The Dream (Matthew Dekay Remix)
    04. Hydroid - Incurved
    05. Mike Foyle vs. Signalrunners – Love Theme Dusk (Mike's Broken Record Mix)
    06. Above and Beyond presents Tranquility Base - Getting away (Leama and Moor Remix)
    07. ID
    08. Thomas Datt - Alone (Inertia Remix)
    09. Castaneda - Oceanborn
    10. Fred Baker - La Part Des Anges
    11. Re:Locate - Absoluum
    12. Arizona and Passiva - Halo (Danjo and Rob Styles Remix)
    13. Tektonik - Shine (D.B.A. Mix)
    14. Classified Project - Starlight chaser (Agnelli and Nelson Remix)
    15. Airbiscuit - Lately (Riley and Durrant Remix)
    16. Purple Haze - Adrenaline (Tune of The Week)
    17. Pulser - Square One (Thrillseekers Mix)
    18. Mojado featuring Mr. Sam - Senorita
    19. Manny Romero - Compadre (S.v.D. Remix)
    20. Ton T.B. - Urbanoids


    Download:
    Trancetraffic: http://www.trancetraffic.com/downloa...005-TT.torrent

    CUE:
    Código:
    PERFORMER "Armin van Buuren"
    TITLE "A State of Trance 188 (17-03-2005)"
    FILE "01_armin_van_buuren_-_a_state_of_trance_188_17-03-2005-tt.mp3" MP3
      TRACK 01 AUDIO
        PERFORMER "Synergy"
        TITLE "Hello strings (Flash Brothers Mix)"
        INDEX 01 00:00:00
      TRACK 02 AUDIO
        PERFORMER "Mark Otten"
        TITLE "So serene"
        INDEX 01 06:36:05
      TRACK 03 AUDIO
        PERFORMER "D-Fuse featuring Jes"
        TITLE "Living The Dream (Matthew Dekay Remix)"
        INDEX 01 14:15:60
      TRACK 04 AUDIO
        PERFORMER "Hydroid"
        TITLE "Incurved"
        INDEX 01 21:36:20
      TRACK 05 AUDIO
        PERFORMER "Mike Foyle vs. Signalrunners"
        TITLE "Love Theme Dusk (Mike's Broken Record Mix)"
        INDEX 01 30:06:70
      TRACK 06 AUDIO
        PERFORMER "Above and Beyond presents Tranquility Base"
        TITLE "Getting away (Leama and Moor Remix)"
        INDEX 01 36:55:50
      TRACK 07 AUDIO
        TITLE "ID"
        INDEX 01 44:13:30
      TRACK 08 AUDIO
        PERFORMER "Thomas Datt"
        TITLE "Alone (Inertia Remix)"
        INDEX 01 49:02:30
      TRACK 09 AUDIO
        PERFORMER "Castaneda"
        TITLE "Oceanborn"
        INDEX 01 56:12:30
      TRACK 10 AUDIO
        PERFORMER "Fred Baker"
        TITLE "La Part Des Anges"
        INDEX 01 61:47:15
      TRACK 11 AUDIO
        PERFORMER "Re:Locate"
        TITLE "Absoluum"
        INDEX 01 69:07:20
      TRACK 12 AUDIO
        PERFORMER "Arizona and Passiva"
        TITLE "Halo (Danjo and Rob Styles Remix)"
        INDEX 01 74:16:60
      TRACK 13 AUDIO
        PERFORMER "Tektonik"
        TITLE "Shine (D.B.A. Mix)"
        INDEX 01 80:22:20
      TRACK 14 AUDIO
        PERFORMER "Classified Project"
        TITLE "Starlight chaser (Agnelli and Nelson Remix)"
        INDEX 01 87:24:10
      TRACK 15 AUDIO
        PERFORMER "Airbiscuit"
        TITLE "Lately (Riley and Durrant Remix)"
        INDEX 01 91:37:15
      TRACK 16 AUDIO
        PERFORMER "Purple Haze"
        TITLE "Adrenaline (Tune of The Week)"
        INDEX 01 98:10:65
      TRACK 17 AUDIO
        PERFORMER "Pulser"
        TITLE "Square One (Thrillseekers Mix)"
        INDEX 01 104:02:30
      TRACK 18 AUDIO
        PERFORMER "Mojado featuring Mr. Sam"
        TITLE "Senorita"
        INDEX 01 109:53:60
      TRACK 19 AUDIO
        PERFORMER "Manny Romero"
        TITLE "Compadre (Sander van Doorn Remix)"
        INDEX 01 112:14:40
      TRACK 20 AUDIO
        PERFORMER "Ton T.B."
        TITLE "Urbanoids"
        INDEX 01 116:22:20
    INFO "CUE Created By http://tracklists.anuga.se/"
    .:: Kero ::.
    Por consultas del foro, dirigirse a Julian

  2. #2
    Fecha de ingreso
    20 octubre 2004
    Ubicación
    Capital Federal
    Edad
    48
    Agradecimientos

    Re: Armin Van Buuren - A State Of Trance 188 (17-03-2005)

    Este viene dedicado a mi persona!! Lástima que no lo voy a poder escuchar en vivo... Esperaré pacientemente su post Sr Kero!!
    30/12/2004 - No olvidarse, nos pudo tocar...

  3. #3
    Fecha de ingreso
    02 junio 1998
    Ubicación
    Plus Ultra
    Agradecimientos

    Re: Armin Van Buuren - A State Of Trance 188 (17-03-2005)

    yo te lo grabo hernan! :P 96kbps pero bue

  4. #4
    Fecha de ingreso
    20 octubre 2004
    Ubicación
    Capital Federal
    Edad
    48
    Agradecimientos

    Re: Armin Van Buuren - A State Of Trance 188 (17-03-2005)

    Uhhh, muchas gracias SR!!! Hoy la rompe Armin!!
    30/12/2004 - No olvidarse, nos pudo tocar...

  5. #5
    Fecha de ingreso
    16 octubre 2004
    Ubicación
    buenos aires
    Edad
    31
    Agradecimientos

    Re: Armin Van Buuren - A State Of Trance 188 (17-03-2005)

    quiero quiero quiero quiero

    Gracias kero, sos " The Lord Of The Asot´s "
    gªs†y²
    NC Desvirtuation Team!
    [FONT="Times New Roman"] maniha squad [/FONT]

  6. #6
    Fecha de ingreso
    04 agosto 2004
    Ubicación
    Capital Federal
    Edad
    27
    Agradecimientos

    Re: Armin Van Buuren - A State Of Trance 188 (17-03-2005)

    ahahaha.. buena ondaaaaa




  7. #7
    Fecha de ingreso
    19 septiembre 1997
    Ubicación
    Ciudad Autónoma de Buenos Aires
    Agradecimientos

    Re: Armin Van Buuren - A State Of Trance 188 (17-03-2005)

    les voy transmitiendo en vivo mientras lo escuchó, arrancó MUY bien con Hello strings, de Sinergy, uno de mis temas preferidos...
    .:: Kero ::.
    Por consultas del foro, dirigirse a Julian

  8. #8
    Fecha de ingreso
    16 enero 2005
    Ubicación
    Recolettta
    Agradecimientos

    Re: Armin Van Buuren - A State Of Trance 188 (17-03-2005)

    muuy lindoo.. wii =)
    We Are Accidents Waiting To Happen* www.myspace.com/vuenos_ayres

  9. #9
    Fecha de ingreso
    04 agosto 2004
    Ubicación
    Capital Federal
    Edad
    27
    Agradecimientos

    Re: Armin Van Buuren - A State Of Trance 188 (17-03-2005)

    eeesaaa.... lo acabo de poner!!.. ARRIBAA!!!




  10. #10
    Fecha de ingreso
    15 noviembre 2004
    Ubicación
    Lejos
    Agradecimientos

    Re: Armin Van Buuren - A State Of Trance 188 (17-03-2005)

    graxxxxxxxxxxxxx

  11. #11
    Fecha de ingreso
    02 junio 1998
    Ubicación
    Plus Ultra
    Agradecimientos

    Re: Armin Van Buuren - A State Of Trance 188 (17-03-2005)

    tengo el set q grabé, son 83Mb a 96kbps

  12. #12
    Fecha de ingreso
    23 diciembre 2004
    Ubicación
    Capital Federal
    Agradecimientos

    Re: Armin Van Buuren - A State Of Trance 188 (17-03-2005)

    me lo perdi...mierda no sabia...

  13. #13
    Fecha de ingreso
    04 agosto 2004
    Ubicación
    Capital Federal
    Edad
    27
    Agradecimientos

    Re: Armin Van Buuren - A State Of Trance 188 (17-03-2005)

    lo escuche entero y no me gusto tanto la verdad... mucho mejor el 187... :P




  14. #14
    Fecha de ingreso
    19 septiembre 1997
    Ubicación
    Ciudad Autónoma de Buenos Aires
    Agradecimientos

    Re: Armin Van Buuren - A State Of Trance 188 (17-03-2005)

    .:: Kero ::.
    Por consultas del foro, dirigirse a Julian

  15. #15
    Fecha de ingreso
    19 septiembre 1997
    Ubicación
    Ciudad Autónoma de Buenos Aires
    Agradecimientos

    Re: Armin Van Buuren - A State Of Trance 188 (17-03-2005)

    cue added
    .:: Kero ::.
    Por consultas del foro, dirigirse a Julian

  16. #16
    Fecha de ingreso
    12 diciembre 2004
    Ubicación
    ::Clubbing::
    Edad
    28
    Agradecimientos

    Re: Armin Van Buuren - A State Of Trance 188 (17-03-2005)

    Gente.. lo pongo para bajar y me tira un error el "Azureus".. aver como lo puedo solucionar.. gracias

  17. #17
    Fecha de ingreso
    19 septiembre 1997
    Ubicación
    Ciudad Autónoma de Buenos Aires
    Agradecimientos

    Re: Armin Van Buuren - A State Of Trance 188 (17-03-2005)

    Cita Iniciado por ENERGY
    Gente.. lo pongo para bajar y me tira un error el "Azureus".. aver como lo puedo solucionar.. gracias
    tenes que estar registrado en trancetraffic
    .:: Kero ::.
    Por consultas del foro, dirigirse a Julian

  18. #18
    Fecha de ingreso
    12 diciembre 2004
    Ubicación
    ::Clubbing::
    Edad
    28
    Agradecimientos

    Re: Armin Van Buuren - A State Of Trance 188 (17-03-2005)

    pongo singup.. y me tira esto.. despues de completar los gaps.. "Sorry, you're not qualified to become a member of this site."

  19. #19
    Fecha de ingreso
    19 septiembre 1997
    Ubicación
    Ciudad Autónoma de Buenos Aires
    Agradecimientos

    Re: Armin Van Buuren - A State Of Trance 188 (17-03-2005)

    Cita Iniciado por ENERGY
    pongo singup.. y me tira esto.. despues de completar los gaps.. "Sorry, you're not qualified to become a member of this site."
    en la edad pone que sos mayor de 18, seguro es eso
    .:: Kero ::.
    Por consultas del foro, dirigirse a Julian

Etiquetas para este tema

Información de tema

Usuarios viendo este tema

Actualmente hay 1 usuarios viendo este tema. (0 miembros y 1 visitantes)

Temas similares

  1. Respuestas: 20
    Último mensaje: jueves 03 mayo de 2007, 12:20
  2. Respuestas: 0
    Último mensaje: viernes 14 octubre de 2005, 16:27
  3. Respuestas: 1
    Último mensaje: jueves 23 junio de 2005, 17:51
  4. Respuestas: 5
    Último mensaje: viernes 15 abril de 2005, 21:26
  5. Respuestas: 10
    Último mensaje: viernes 25 febrero de 2005, 18:37

Permisos de publicación

  • No puedes crear nuevos temas
  • No puedes responder temas
  • No puedes subir archivos adjuntos
  • No puedes editar tus mensajes
  •