Armin Van Buuren - A State Of Trance 187 (10-03-2005)

-- Publicidad --

Aftercluv 10

Resultados 1 al 18 de 18
  1. #1
    Fecha de ingreso
    19 septiembre 1997
    Ubicación
    Ciudad Autónoma de Buenos Aires
    Agradecimientos

    Armin Van Buuren - A State Of Trance 187 (10-03-2005)

    A State of Trance 187
    with [FONT=Arial]Armin Van Buuren[/FONT]
    (10-03-2005)


    Los States of Trance, se mudan en Marzo a Digitally Imported (www.di.fm), más info del show en http://www.di.fm/calendar/event.php?event=1258
    Hoy jueves 10 de marzo podrán escuchar el show en vivo a las 16 hs de Argentina en http://www.di.fm/trance/info/ eligiendo entre winamp y WMP y diferentes streams segun la conexion de cada uno . Luego del show posteo lo demás...

    Tracklist:
    1. Unknown Artist - So Serene
    2. Niklas Harding presents Arcane - Blue Circles
    3. Radiohead - Where i end and you begin (Leama & Moor remix)
    4. Andy Moor - Halcyon
    5. Ahmet Ertenu - Why (Derek Howell remix) (Nacent)
    6. Matthew Dekay vs Prolucters - The Deep Show (Remy remix)
    7. Chimera - In Deep (Aidan Lavelle remix) (Silver Planet)
    8. Mike Foyle vs Signalrunners - Love theme dusk
    9. Tangled Universe - I miss You
    10. Activa - Release Me (Danjo & Rob Styles remix)
    11. Matt Darey - Liberation (darey deeper mix) (Darey Products)
    12. Kaste - Desert Eagle
    13. AYU - Appears (Kyau vs Albert remix)
    14. Jonas Steur - Castamara (Intuition)
    15. Pulser - Point of Impact
    16. Fred Baker vs Keyboard Kids - All of Us (Bobina rework)
    17. Mojado - Senorita
    18. Manny Romero - Compadre (SVD remix)
    19. Remy & Roland Klinkenberg - Till Ya Drop
    20. Yahel feat. A Force - Behind Silence
    21. B&W - Mistaken
    22. Eye Wall - Bad Deal
    23. Armin van Buuren - Shivers
    24. Signum - Back @ Ya

    Download:
    Trancetraffic: http://www.trancetraffic.com/downloa...005-TT.torrent

    CUE:
    Código:
    PERFORMER "Armin van Buuren"
    TITLE "A State of Trance 187 (10-03-2005)"
    FILE "01_armin_van_buuren_-_a_state_of_trance_187_10-03-2005-tt.mp3" MP3
      TRACK 01 AUDIO
        PERFORMER "Unknown Artist"
        TITLE "So serene"
        INDEX 01 00:00:00
      TRACK 02 AUDIO
        PERFORMER "Niklas Harding presents Arcane"
        TITLE "Blue circles"
        INDEX 01 08:36:60
      TRACK 03 AUDIO
        PERFORMER "Radiohead"
        TITLE "Where I end and you begin (Leama and Moor Remix)"
        INDEX 01 14:53:20
      TRACK 04 AUDIO
        PERFORMER "Andy Moor"
        TITLE "Halcyon"
        INDEX 01 20:26:10
      TRACK 05 AUDIO
        PERFORMER "Ahmet Ertenu"
        TITLE "Why? (Derek Howell Remix)"
        INDEX 01 26:56:50
      TRACK 06 AUDIO
        PERFORMER "Matthew Dekay vs. Prolucters"
        TITLE "The Deep Show (Remy remix)"
        INDEX 01 31:38:60
      TRACK 07 AUDIO
        PERFORMER "Chimera"
        TITLE "In Deep (Aidan Lavelle Remix)"
        INDEX 01 36:57:20
      TRACK 08 AUDIO
        PERFORMER "Mike Foyle vs. Signalrunners"
        TITLE "Love Theme Dusk (Tune of The Week)"
        INDEX 01 42:51:70
      TRACK 09 AUDIO
        PERFORMER "Tangled Universe"
        TITLE "I miss you"
        INDEX 01 49:02:20
      TRACK 10 AUDIO
        PERFORMER "Activa"
        TITLE "Release Me (Danjo and Rob Styles Remix)"
        INDEX 01 53:44:60
      TRACK 11 AUDIO
        PERFORMER "Matt Darey"
        TITLE "Liberation (Darey Deeper Mix)"
        INDEX 01 61:13:50
      TRACK 12 AUDIO
        PERFORMER "Kaste"
        TITLE "Desert eagle"
        INDEX 01 64:58:10
      TRACK 13 AUDIO
        PERFORMER "AYU"
        TITLE "Appears (Kyau vs. Albert remix)"
        INDEX 01 73:15:60
      TRACK 14 AUDIO
        PERFORMER "Jonas Steur"
        TITLE "Castamara"
        INDEX 01 78:31:35
      TRACK 15 AUDIO
        PERFORMER "Pulser"
        TITLE "Point of Impact"
        INDEX 01 87:24:30
      TRACK 16 AUDIO
        PERFORMER "Fred Baker vs. Keyboard Kids"
        TITLE "All of Us (Bobina Rework)"
        INDEX 01 91:59:10
      TRACK 17 AUDIO
        PERFORMER "Mojado"
        TITLE "Senorita"
        INDEX 01 92:34:45
      TRACK 18 AUDIO
        PERFORMER "Manny Romero"
        TITLE "Compadre (S.V.D. Remix)"
        INDEX 01 95:01:60
      TRACK 19 AUDIO
        PERFORMER "Remy and Roland Klinkenberg"
        TITLE "Till ya drop (Edit)"
        INDEX 01 95:15:70
      TRACK 20 AUDIO
        PERFORMER "Yahel featuring A-Force"
        TITLE "Behind Silence"
        INDEX 01 97:57:00
      TRACK 21 AUDIO
        PERFORMER "B&W"
        TITLE "Mistaken"
        INDEX 01 101:27:30
      TRACK 22 AUDIO
        PERFORMER "Eye Wall"
        TITLE "Bad Deal"
        INDEX 01 104:43:40
      TRACK 23 AUDIO
        PERFORMER "Armin van Buuren"
        TITLE "Shivers"
        INDEX 01 109:24:10
      TRACK 24 AUDIO
        PERFORMER "Signum"
        TITLE "Back at ya"
        INDEX 01 115:14:50
    INFO "CUE Created By http://tracklists.anuga.se/"
    .:: Kero ::.
    Por consultas del foro, dirigirse a Julian

  2. #2
    Fecha de ingreso
    04 agosto 2004
    Ubicación
    Capital Federal
    Edad
    27
    Agradecimientos

    Re: Armin Van Buuren - A State Of Trance 187 (10-03-2005)

    ARRIBAAAA.... el mago siempre poniendo los ASOT!! jajaja




  3. #3
    Fecha de ingreso
    02 junio 1998
    Ubicación
    Plus Ultra
    Agradecimientos

    Re: Armin Van Buuren - A State Of Trance 187 (10-03-2005)

    Si hacen click en SECCIONES arriba de todo en NightClubber, hay un link q dice Radio, ahi eligen DI Trane y podran escuchar el ASOT de hoy.

  4. #4
    Fecha de ingreso
    16 enero 2005
    Ubicación
    Recolettta
    Agradecimientos

    Re: Armin Van Buuren - A State Of Trance 187 (10-03-2005)

    see vieene muyy lindoo!!!!.. daleeeeeeeee!
    We Are Accidents Waiting To Happen* www.myspace.com/vuenos_ayres

  5. #5
    Fecha de ingreso
    19 septiembre 1997
    Ubicación
    Ciudad Autónoma de Buenos Aires
    Agradecimientos

    Re: Armin Van Buuren - A State Of Trance 187 (10-03-2005)

    que buen show dios mio! me perdi los ultimos 10 mins por que me tuve que ir :(
    Tracklist added!
    .:: Kero ::.
    Por consultas del foro, dirigirse a Julian

  6. #6
    Fecha de ingreso
    02 junio 1998
    Ubicación
    Plus Ultra
    Agradecimientos

    Re: Armin Van Buuren - A State Of Trance 187 (10-03-2005)

    ufff tengo casi todo grabado. pero a 96kbps

    en un rato lo bajo a 192kbps :|

  7. #7
    Fecha de ingreso
    16 octubre 2004
    Ubicación
    buenos aires
    Edad
    31
    Agradecimientos

    Re: Armin Van Buuren - A State Of Trance 187 (10-03-2005)

    me lima mucho behind the silence... ya hace 3 asots q me ta limando mucho!!!!!!
    gªs†y²
    NC Desvirtuation Team!
    [FONT="Times New Roman"] maniha squad [/FONT]

  8. #8
    Fecha de ingreso
    20 octubre 2004
    Ubicación
    Capital Federal
    Edad
    48
    Agradecimientos

    Re: Armin Van Buuren - A State Of Trance 187 (10-03-2005)

    Lástima que los pibes de DI no se copan tanto y no ponen el torrent como lo hacía ETN, en fin...
    30/12/2004 - No olvidarse, nos pudo tocar...

  9. #9
    Fecha de ingreso
    19 septiembre 1997
    Ubicación
    Ciudad Autónoma de Buenos Aires
    Agradecimientos

    Re: Armin Van Buuren - A State Of Trance 187 (10-03-2005)

    .:: Kero ::.
    Por consultas del foro, dirigirse a Julian

  10. #10
    Fecha de ingreso
    04 agosto 2004
    Ubicación
    Capital Federal
    Edad
    27
    Agradecimientos

    Re: Armin Van Buuren - A State Of Trance 187 (10-03-2005)

    si kieren bajerlo directamente.. aca les dejo un link

    ¦ Download / Descargar ¦




  11. #11
    Fecha de ingreso
    20 octubre 2004
    Ubicación
    Capital Federal
    Edad
    48
    Agradecimientos

    Re: Armin Van Buuren - A State Of Trance 187 (10-03-2005)

    Lo escuché bastante este finde, y realmente mantiene un nivel muy impresionante, espero que en algun momento del año este pibe decida bajar a estos pagos...
    30/12/2004 - No olvidarse, nos pudo tocar...

  12. #12
    Fecha de ingreso
    16 octubre 2004
    Ubicación
    buenos aires
    Edad
    31
    Agradecimientos

    Re: Armin Van Buuren - A State Of Trance 187 (10-03-2005)

    Cita Iniciado por juan_smile
    si kieren bajerlo directamente.. aca les dejo un link

    ¦ Download / Descargar ¦

    asdasd me pide un pasguord :s..... q j0nda?

    y el torrent no me funca :@
    gªs†y²
    NC Desvirtuation Team!
    [FONT="Times New Roman"] maniha squad [/FONT]

  13. #13
    Fecha de ingreso
    20 octubre 2004
    Ubicación
    Capital Federal
    Edad
    48
    Agradecimientos

    Re: Armin Van Buuren - A State Of Trance 187 (10-03-2005)

    Gasty, te pide pasword porque para bajar torrents de trancetraffic tenés que registrarte, y además tener que compartir lo que bajás de ellos...
    30/12/2004 - No olvidarse, nos pudo tocar...

  14. #14
    Fecha de ingreso
    04 agosto 2004
    Ubicación
    Capital Federal
    Edad
    27
    Agradecimientos

    Re: Armin Van Buuren - A State Of Trance 187 (10-03-2005)

    creo q la password es... slaff




  15. #15
    Fecha de ingreso
    11 noviembre 2004
    Ubicación
    adsasdasdasdasd
    Agradecimientos

    Re: Armin Van Buuren - A State Of Trance 187 (10-03-2005)

    Cita Iniciado por juan_smile
    creo q la password es... slaff
    Te ZARPAS, pendejo, SABELO!

  16. #16
    Fecha de ingreso
    16 octubre 2004
    Ubicación
    buenos aires
    Edad
    31
    Agradecimientos

    Re: Armin Van Buuren - A State Of Trance 187 (10-03-2005)

    Cita Iniciado por juan_smile
    creo q la password es... slaff

    pass: " Turbotrance "

    ese a mi me funciono
    gªs†y²
    NC Desvirtuation Team!
    [FONT="Times New Roman"] maniha squad [/FONT]

  17. #17
    Fecha de ingreso
    04 agosto 2004
    Ubicación
    Capital Federal
    Edad
    27
    Agradecimientos

    Re: Armin Van Buuren - A State Of Trance 187 (10-03-2005)

    ajaja see... son siempre las mismas...




  18. #18
    Fecha de ingreso
    19 septiembre 1997
    Ubicación
    Ciudad Autónoma de Buenos Aires
    Agradecimientos

    Re: Armin Van Buuren - A State Of Trance 187 (10-03-2005)

    cue added
    .:: Kero ::.
    Por consultas del foro, dirigirse a Julian

Etiquetas para este tema

Información de tema

Usuarios viendo este tema

Actualmente hay 1 usuarios viendo este tema. (0 miembros y 1 visitantes)

Temas similares

  1. Respuestas: 20
    Último mensaje: jueves 03 mayo de 2007, 12:20
  2. Respuestas: 0
    Último mensaje: viernes 14 octubre de 2005, 16:27
  3. Respuestas: 1
    Último mensaje: jueves 23 junio de 2005, 17:51
  4. Respuestas: 5
    Último mensaje: viernes 15 abril de 2005, 21:26
  5. Respuestas: 10
    Último mensaje: viernes 25 febrero de 2005, 18:37

Permisos de publicación

  • No puedes crear nuevos temas
  • No puedes responder temas
  • No puedes subir archivos adjuntos
  • No puedes editar tus mensajes
  •