Armin Van Buuren - A State Of Trance 186 (03-03-2005)
Resultados 1 al 10 de 10
  1. #1
    Fecha de ingreso
    19 septiembre 1997
    Ubicación
    Ciudad Autónoma de Buenos Aires
    Agradecimientos

    Armin Van Buuren - A State Of Trance 186 (03-03-2005)

    A State of Trance 186
    with [FONT=Arial]Armin Van Buuren[/FONT]
    (03-03-2005)

    Tracklist:
    1. B.I.G. - A Promise
    2. Matt Darey - Liberation (Darey Deep mix)
    3. Mike Foyle vs Signalrunners - Love theme dusk
    4. Purple Haze - Adrenaline
    5. Jonas Steur - Castamara
    6. Marcos - Tribal Affair
    7. B&W- Mistaken
    8. Yahel feat. A force - Behind Silence
    9. Tektonik - Shine dba mix
    10. Filo & Peri feat. Fisher - Closer Now (Whiteroom mix)
    11. DJ Vestiga vs Jomar - Nightoperator
    12. Mike Foyle presents Static - Space guitar
    13. Quadran - Don't you know (Antidote mix)
    14. Signum - Back @ ya
    15. Active Sight - Adrenaline (Captivating)
    16. Fragile feat. Alex Lemon - Inertia
    17. Kaste - Desert Eagle
    18. Kuisma & Rusch - Yogatech (Gesture)
    19. Primer - Silver Lining (John O callaghan)
    20. Goldenscan - Only with You
    21. Raul Cremona - Virus
    22. Eye Wall - bad Deal

    Download:
    Ets-Global: http://tracker.ets-global.org:7979/t...01652e9bea6325
    Trancetraffic: http://72.21.50.194/download/4589/Ar...05.mp3.torrent

    CUE:
    Código:
    PERFORMER "Armin van Buuren"
    TITLE "A State Of Trance 186 (03-03-2005)"
    FILE "Armin_van_Buuren_-_A_State_of_Trance_186_03-03-2005.mp3" MP3
      TRACK 01 AUDIO
        PERFORMER "B.I.G"
        TITLE "A Promise"
        INDEX 01 00:00:00
      TRACK 02 AUDIO
        PERFORMER "Matt Darey"
        TITLE "Liberation (Darey Deep mix)"
        INDEX 01 06:59:30
      TRACK 03 AUDIO
        PERFORMER "Mike Foyle vs. Signalrunners"
        TITLE "Love Theme Dusk (Mike's Broken Record Mix)"
        INDEX 01 11:21:40
      TRACK 04 AUDIO
        PERFORMER "Purple Haze"
        TITLE "Adrenaline"
        INDEX 01 18:04:25
      TRACK 05 AUDIO
        PERFORMER "Jonas Steur"
        TITLE "Castamara"
        INDEX 01 22:10:05
      TRACK 06 AUDIO
        PERFORMER "Marcos"
        TITLE "Tribal affair"
        INDEX 01 28:27:70
      TRACK 07 AUDIO
        PERFORMER "Bart Van Wissen"
        TITLE "Mistaken"
        INDEX 01 32:04:15
      TRACK 08 AUDIO
        PERFORMER "Yahel featuring A-Force"
        TITLE "Behind Silence"
        INDEX 01 36:57:20
      TRACK 09 AUDIO
        PERFORMER "Tektonik"
        TITLE "Shine (D.B.A. mix)"
        INDEX 01 42:16:10
      TRACK 10 AUDIO
        PERFORMER "Filo and Peri featuring Kathleen Fisher"
        TITLE "Closer Now (Whiteroom Remix)"
        INDEX 01 47:29:35
      TRACK 11 AUDIO
        PERFORMER "Vesiga vs. Jomar"
        TITLE "Nightoperator (Club Mix)"
        INDEX 01 53:20:70
      TRACK 12 AUDIO
        PERFORMER "Mike Foyle presents Statica"
        TITLE "Space Guitar"
        INDEX 01 57:37:12
      TRACK 13 AUDIO
        PERFORMER "Quadran"
        TITLE "Don't you know (Antidote mix)"
        INDEX 01 62:24:50
      TRACK 14 AUDIO
        PERFORMER "Signum"
        TITLE "Back at Ya!"
        INDEX 01 66:15:50
      TRACK 15 AUDIO
        PERFORMER "Active Sight"
        TITLE "Adrenaline"
        INDEX 01 72:54:10
      TRACK 16 AUDIO
        PERFORMER "Fragile featuring Alex Lemon"
        TITLE "Inertia (Armin van Buuren Edit)"
        INDEX 01 78:02:45
      TRACK 17 AUDIO
        PERFORMER "Kaste"
        TITLE "Desert Eagle"
        INDEX 01 84:55:75
      TRACK 18 AUDIO
        PERFORMER "Kuisma and Rusch"
        TITLE "Yogatech"
        INDEX 01 92:30:55
      TRACK 19 AUDIO
        PERFORMER "Primer"
        TITLE "The Silver Lining (John O'Callaghan Remix)"
        INDEX 01 96:15:65
      TRACK 20 AUDIO
        PERFORMER "Goldenscan"
        TITLE "Only with you"
        INDEX 01 102:37:20
      TRACK 21 AUDIO
        PERFORMER "Raul Cremona"
        TITLE "Virus"
        INDEX 01 110:23:25
      TRACK 22 AUDIO
        PERFORMER "Eye Wall"
        TITLE "Bad Deal"
        INDEX 01 115:31:35
    INFO "CUE Created By http://tracklists.anuga.se/"
    .:: Kero ::.
    Por consultas del foro, dirigirse a Julian

  2. #2
    Fecha de ingreso
    25 octubre 2004
    Ubicación
    Quilmes
    Edad
    31
    Agradecimientos

    Re: Armin Van Buuren - A State Of Trance 186 (03-03-2005)

    thx again men, downloadin'.
    progresive trance
    130 bpm

  3. #3
    Fecha de ingreso
    04 agosto 2004
    Ubicación
    Capital Federal
    Edad
    27
    Agradecimientos

    Re: Armin Van Buuren - A State Of Trance 186 (03-03-2005)

    gracias nenE!.. aunke estaba posteado...

    jua.. nonono flashiee... gracias kero! xD




  4. #4
    Fecha de ingreso
    20 octubre 2004
    Ubicación
    Capital Federal
    Edad
    49
    Agradecimientos

    Re: Armin Van Buuren - A State Of Trance 186 (03-03-2005)

    Bajando lentamente... pero bajando... Gracias, como siempre!!
    30/12/2004 - No olvidarse, nos pudo tocar...

  5. #5
    Fecha de ingreso
    12 diciembre 2004
    Ubicación
    ::Clubbing::
    Edad
    29
    Agradecimientos

    Re: Armin Van Buuren - A State Of Trance 186 (03-03-2005)

    muchgras gracias papa... me re liman estos sets

  6. #6
    Fecha de ingreso
    20 octubre 2004
    Ubicación
    Capital Federal
    Edad
    49
    Agradecimientos

    Re: Armin Van Buuren - A State Of Trance 186 (03-03-2005)

    Muchas gracias SR KERO!!! Todo bien, compartimos el gusto, mientras este posteado vale!!
    30/12/2004 - No olvidarse, nos pudo tocar...

  7. #7
    Fecha de ingreso
    31 agosto 2004
    Ubicación
    Lanus Oeste
    Edad
    34
    Agradecimientos

    Gracioso Re: Armin Van Buuren - A State Of Trance 186 (03-03-2005)

    JEjejejej Me lo baje ayer... !!!

    T mooy lindo ese set...!!!
    This is...

  8. #8
    Fecha de ingreso
    16 octubre 2004
    Ubicación
    buenos aires
    Edad
    32
    Agradecimientos

    Re: Armin Van Buuren - A State Of Trance 186 (03-03-2005)

    muy lendoooooo

    me lima muuuuuuuuuuuuuuuuuuuchhhhhhhhhooooooooo "Behind The Silence"

    el .cue alguien lo tiene?
    gªs†y²
    NC Desvirtuation Team!
    [FONT="Times New Roman"] maniha squad [/FONT]

  9. #9
    Fecha de ingreso
    11 octubre 2004
    Ubicación
    bajo flores
    Agradecimientos

    Re: Armin Van Buuren - A State Of Trance 186 (03-03-2005)

    muy groso, ya lo tenia..
    APRENDE TIESTO

  10. #10
    Fecha de ingreso
    19 septiembre 1997
    Ubicación
    Ciudad Autónoma de Buenos Aires
    Agradecimientos

    Re: Armin Van Buuren - A State Of Trance 186 (03-03-2005)

    Cita Iniciado por gastee!
    muy lendoooooo

    me lima muuuuuuuuuuuuuuuuuuuchhhhhhhhhooooooooo "Behind The Silence"

    el .cue alguien lo tiene?
    Just added
    .:: Kero ::.
    Por consultas del foro, dirigirse a Julian

Etiquetas para este tema

Información de tema

Usuarios viendo este tema

Actualmente hay 1 usuarios viendo este tema. (0 miembros y 1 visitantes)

Temas similares

  1. Respuestas: 20
    Último mensaje: jueves 03 mayo de 2007, 12:20
  2. Respuestas: 0
    Último mensaje: viernes 14 octubre de 2005, 16:27
  3. Respuestas: 1
    Último mensaje: jueves 23 junio de 2005, 17:51
  4. Respuestas: 5
    Último mensaje: viernes 15 abril de 2005, 21:26
  5. Respuestas: 10
    Último mensaje: viernes 25 febrero de 2005, 18:37

Permisos de publicación

  • No puedes crear nuevos temas
  • No puedes responder temas
  • No puedes subir archivos adjuntos
  • No puedes editar tus mensajes
  •