Armin Van Buuren - A State Of Trance 185 (24-02-2005)
Resultados 1 al 11 de 11
  1. #1
    Fecha de ingreso
    19 septiembre 1997
    Ubicación
    Ciudad Autónoma de Buenos Aires
    Agradecimientos

    Armin Van Buuren - A State Of Trance 185 (24-02-2005)

    A State of Trance 185
    with Armin Van Buuren
    (24-02-2005)

    01. Pharmacy Of Sound - Searching For Substance
    02. Niklas Harding presents Arcane - Blue Circles
    03. D-Fuse featuring Jes - Living The Dream (Matthew Dekay Remix)
    04. Andy Moor - Halcyon
    05. Martin Roth's Hands On Keane - This Is The Last Time (Martin Roth Remix)
    06. Filo & Peri featuring Kathleen Fisher - Closer Now (Whiteroom Remix)
    07. Kobee - Endless Thoughts (Elektrokid Remix)
    08. Goldenscan - Only With You
    09. Yahel featuring A-Force - Behind Silence (Tune Of The Week)
    10. Perasma - Swing 2 Harmony (Deserves An Effort Symphony Dub)
    11. Armin van Buuren - Birth Of An Angel
    12. Jonas Steur - Castamara
    13. Fred Baker vs Keyboard Kids - All Of Us (Fred Baker Remix)
    14. E-Tronic - The Glass House
    15. Fragile featuring Alex Lemon - Inertia (Armin van Buuren Edit)
    16. Kuisma featuring Rusch - Yogatech (Original Mix)
    17. Odyssee - Yucatan
    18. M.I.K.E. - Massive Motion
    19. Ron van den Beuken - Clockx Feelings

    Download:
    Ets-Global: http://tracker.ets-global.org:7979/t...cf983ffbff3ff9
    Trancetraffic: http://72.21.50.194/download/4322/Ar...05.mp3.torrent

    CUE:
    Código:
    PERFORMER "Armin van Buuren"
    TITLE "A State of Trance 185 (25-02-2005)"
    FILE "Armin_van_Buuren_-_A_State_of_Trance_185_24-02-2005.mp3" MP3
      TRACK 01 AUDIO
        PERFORMER "Pharmacy of Sound"
        TITLE "Searching for substance"
        INDEX 01 00:00:00
      TRACK 02 AUDIO
        PERFORMER "Niklas Harding presents Arcane"
        TITLE "Blue Circles"
        INDEX 01 07:40:40
      TRACK 03 AUDIO
        PERFORMER "D-Fuse featuring Jes Brieden"
        TITLE "Living The Dream (Matthew Dekay Remix)"
        INDEX 01 13:41:40
      TRACK 04 AUDIO
        PERFORMER "Andy Moor"
        TITLE "Halcyon"
        INDEX 01 20:25:50
      TRACK 05 AUDIO
        PERFORMER "Martin Roth's Hands On Keane"
        TITLE "This is The Last Time (Martin Roth Remix)"
        INDEX 01 27:24:25
      TRACK 06 AUDIO
        PERFORMER "Filo and Peri featuring Kathleen Fisher"
        TITLE "Closer Now (White Room Remix)"
        INDEX 01 32:56:15
      TRACK 07 AUDIO
        PERFORMER "Kobee"
        TITLE "Endless Thoughts (Elektrokid Remix)"
        INDEX 01 39:29:60
      TRACK 08 AUDIO
        PERFORMER "Goldenscan"
        TITLE "Only with you"
        INDEX 01 47:21:60
      TRACK 09 AUDIO
        PERFORMER "Yahel featuring A-Force"
        TITLE "Behind Silence (Tune of The Week)"
        INDEX 01 55:48:75
      TRACK 10 AUDIO
        PERFORMER "Perasma"
        TITLE "Swing 2 Harmony (Deserves an Effort)(Symphony Dub)"
        INDEX 01 60:13:20
      TRACK 11 AUDIO
        PERFORMER "Armin van Buuren"
        TITLE "Birth of an angel"
        INDEX 01 65:18:35
      TRACK 12 AUDIO
        PERFORMER "Jonas Steur"
        TITLE "Castamara"
        INDEX 01 72:00:60
      TRACK 13 AUDIO
        PERFORMER "Fred Baker vs. Keyboard Kids"
        TITLE "All of us (Fred Baker Remix)"
        INDEX 01 78:15:25
      TRACK 14 AUDIO
        PERFORMER "E-Tronic"
        TITLE "The Glass House"
        INDEX 01 83:08:15
      TRACK 15 AUDIO
        PERFORMER "Fragile featuring Alex Lemon"
        TITLE "Inertia (Armin van Buuren Edit)"
        INDEX 01 88:18:55
      TRACK 16 AUDIO
        PERFORMER "Kuisma featuring Rusch"
        TITLE "Yogatech (Original Mix)"
        INDEX 01 95:49:45
      TRACK 17 AUDIO
        PERFORMER "Odyssee"
        TITLE "Yucatan"
        INDEX 01 100:54:60
      TRACK 18 AUDIO
        PERFORMER "M.I.K.E."
        TITLE "Massive Motion"
        INDEX 01 107:09:15
      TRACK 19 AUDIO
        PERFORMER "Clockx"
        TITLE "Feelings"
        INDEX 01 112:24:68
    .:: Kero ::.
    Por consultas del foro, dirigirse a Julian

  2. #2
    Fecha de ingreso
    11 agosto 2004
    Ubicación
    Palermo
    Edad
    28
    Agradecimientos

    Re: Armin Van Buuren - A State Of Trance 185 (24-02-2005)

    Apenas llege a casa lo bajo a ver que tal, el 184 personalmente no me gusto mucho.
    Parece interesante, hay temas de Martin Rooth, Yahel, Goldescan y Push, asique malo no debe ser (Push aka M.I.K.E.)
    Igual nunca fui un gran fanatico de los ASOTS.
    Gracias por el torrent y el tracklist kero, keep up!

  3. #3
    Fecha de ingreso
    04 agosto 2004
    Ubicación
    Capital Federal
    Edad
    36
    Agradecimientos

    Re: Armin Van Buuren - A State Of Trance 185 (24-02-2005)

    Gracias por el aporte. Lo baje en 10 minutos. Excelente

  4. #4
    Fecha de ingreso
    19 septiembre 1997
    Ubicación
    Ciudad Autónoma de Buenos Aires
    Agradecimientos

    Re: Armin Van Buuren - A State Of Trance 185 (24-02-2005)

    digamos que los asots son una buena forma de ver los hits que están por venir, y lo que está sonando en esos pagos también.

    Yahel la rulea, me encanta
    .:: Kero ::.
    Por consultas del foro, dirigirse a Julian

  5. #5
    Fecha de ingreso
    04 agosto 2004
    Ubicación
    Belgrano
    Edad
    36
    Agradecimientos

    Re: Armin Van Buuren - A State Of Trance 185 (24-02-2005)

    GRacias por el torrent Kero....
    Me lo voy a bajar a ver que onda...!! =)
    [FONT=Arial Black]::: contact:::
    [/FONT]
    [email protected]

  6. #6
    Fecha de ingreso
    11 agosto 2004
    Ubicación
    Palermo
    Edad
    28
    Agradecimientos

    Re: Armin Van Buuren - A State Of Trance 185 (24-02-2005)

    Cita Iniciado por Kerozene
    digamos que los asots son una buena forma de ver los hits que están por venir, y lo que está sonando en esos pagos también.

    Yahel la rulea, me encanta
    Yahel, israeli, en casa tengo una pagina con muchos sets y producciones.
    Principalmente son el mayor exponente del trance de esa region, y uno de los mas importantes productores-djs de psy del mundo.

  7. #7
    Fecha de ingreso
    04 agosto 2004
    Ubicación
    Capital Federal
    Edad
    27
    Agradecimientos

    Re: Armin Van Buuren - A State Of Trance 185 (24-02-2005)

    gracias señor kerozene!




  8. #8
    Fecha de ingreso
    20 octubre 2004
    Ubicación
    Capital Federal
    Edad
    49
    Agradecimientos

    Re: Armin Van Buuren - A State Of Trance 185 (24-02-2005)

    Siempre me genera expectativas un ASOT, y me da gusto escucharlos... A ver que onda el 185??
    30/12/2004 - No olvidarse, nos pudo tocar...

  9. #9
    Fecha de ingreso
    05 diciembre 2004
    Ubicación
    haedo
    Edad
    33
    Agradecimientos

    Re: Armin Van Buuren - A State Of Trance 185 (24-02-2005)

    D-Fuse featuring Jes - Living The Dream (Matthew Dekay Remix)
    temazoo!
    alguien tiene los cue de los ultimos asots??

  10. #10
    Fecha de ingreso
    03 octubre 2004
    Ubicación
    Belgrano
    Edad
    34
    Agradecimientos

    Re: Armin Van Buuren - A State Of Trance 185 (24-02-2005)

    SI es un temasoooooooooo JEs es la vocalist de MOtorcycle
    Visions Exist to be Lived







  11. #11
    Fecha de ingreso
    11 diciembre 2004
    Ubicación
    Cap Fed
    Agradecimientos

    Re: Armin Van Buuren - A State Of Trance 185 (24-02-2005)

    Lo estoy bajando! Gracais x el torrent. En 4 hroas los tengo =S

Etiquetas para este tema

Información de tema

Usuarios viendo este tema

Actualmente hay 1 usuarios viendo este tema. (0 miembros y 1 visitantes)

Temas similares

  1. Respuestas: 20
    Último mensaje: jueves 03 mayo de 2007, 12:20
  2. Respuestas: 0
    Último mensaje: viernes 14 octubre de 2005, 16:27
  3. Respuestas: 1
    Último mensaje: jueves 23 junio de 2005, 17:51
  4. Respuestas: 8
    Último mensaje: jueves 19 mayo de 2005, 15:24
  5. Respuestas: 5
    Último mensaje: viernes 15 abril de 2005, 21:26

Permisos de publicación

  • No puedes crear nuevos temas
  • No puedes responder temas
  • No puedes subir archivos adjuntos
  • No puedes editar tus mensajes
  •