Armin Van Buuren - State Of Trance 184
Página 1 de 2 1 2 ÚltimoÚltimo
Resultados 1 al 20 de 22
  1. #1
    Fecha de ingreso
    19 septiembre 1997
    Ubicación
    Ciudad Autónoma de Buenos Aires
    Agradecimientos

    State Of Trance 184 (17-02-2005)

    A State Of Trance Episode 184
    With Armin Van Buuren
    17-02-2005


    Armin van Buuren - A State Of Trance Episode 184 (17-02-2005)

    01. D-Fuse featuring Jes - Heavy (Matthew Dekay Remix)
    02. Roland Klinkenberg - Twilight
    03. ID
    04. Ava Mea - In The End
    05. Solid Globe - Lost Cities
    06. Goldenscan - Only With You
    07. Fred Baker vs Nyram - Confirmation
    08. Primer - The Silver Lining (John O'Callaghan Remix)
    09. Fred Baker vs Keyboard Kids - All Of Us (Fred Baker Remix)
    10. Pulser - Point Of Impact
    11. Jonas Steur - Castamara (Tune Of The Week)
    12. Marcos - Tribal Affair
    13. Ronski Speed - 2Day
    14. M.I.K.E. - Massive Motion
    15. Armin van Buuren - Birth Of An Angel
    16. Andy Moor - Halcyon
    17. Ridgewalkers featuring El - Find (Perry O'Neil Remix)
    18. Sophie Sugar - Call Of Tomorrow (John O'Callaghan Remix)

    Download: http://tracker.ets-global.org:7979/t...2aeb0f032241ca (Gracias a hernan por el link :p )
    Última edición por digitaaal!; viernes 18 febrero de 2005 a las 15:50
    .:: Kero ::.
    Por consultas del foro, dirigirse a Julian

  2. #2
    Fecha de ingreso
    25 octubre 2004
    Ubicación
    Quilmes
    Edad
    31
    Agradecimientos

    Re: State Of Trance 184

    downloading....
    progresive trance
    130 bpm

  3. #3
    Fecha de ingreso
    20 octubre 2004
    Ubicación
    Capital Federal
    Edad
    49
    Agradecimientos

    Re: State Of Trance 184

    Y no lo puedo bajar porque ahora estoy detrás de un proxy y no quiero cambiar la configuración del Azareus a cada rato!!! A las 2 de la matina empiezo a bajarlo!!
    30/12/2004 - No olvidarse, nos pudo tocar...

  4. #4
    Fecha de ingreso
    11 diciembre 2004
    Ubicación
    Cap Fed
    Agradecimientos

    Re: State Of Trance 184

    Ya lo estoy bajando! gracias kero!

  5. #5
    Fecha de ingreso
    11 agosto 2004
    Ubicación
    Palermo
    Edad
    28
    Agradecimientos

  6. #6
    Fecha de ingreso
    04 agosto 2004
    Ubicación
    Capital Federal
    Edad
    27
    Agradecimientos

    Re: State Of Trance 184

    gracias nene!!




  7. #7
    Fecha de ingreso
    07 febrero 2005
    Ubicación
    Giran Castle Town
    Edad
    30
    Agradecimientos

    Re: State Of Trance 184

    el ultimo tema es terrible...

    Yo lo escuche por di.fm , fue muy hermoso.
    [FONT="Impact"]como mantener a un idiota ocupado —lee abajo.
    COMO mantener a un idiota ocupado —lee arriba.
    Overdue Payment http://www.ungraphic.com/stuff/spidey.gif
    [/FONT]

  8. #8
    Fecha de ingreso
    11 noviembre 2004
    Ubicación
    adsasdasdasdasd
    Agradecimientos

    Re: State Of Trance 184

    Ya ta bajando, despues comento que me parecio.

    THKS !

  9. #9
    Fecha de ingreso
    05 diciembre 2004
    Ubicación
    haedo
    Edad
    32
    Agradecimientos

    Re: State Of Trance 184

    esta muy weno... era de esperarse de Mr.armin van buuren!

  10. #10
    Fecha de ingreso
    04 agosto 2004
    Ubicación
    Capital Federal
    Edad
    36
    Agradecimientos

    Re: State Of Trance 184

    Muchas Gracias!



    Compartan!
    Última edición por Carlosnik; sábado 19 febrero de 2005 a las 18:28

  11. #11
    Fecha de ingreso
    10 agosto 2004
    Ubicación
    CABA
    Edad
    30
    Agradecimientos

    Re: State Of Trance 184

    Daleeeeeeee NENEEEEEEEEEe Gracias!!!!!!!!!!!!!!!!!!!!!!

  12. #12
    Fecha de ingreso
    11 enero 2005
    Ubicación
    Cap fed
    Edad
    29
    Agradecimientos

    Re: State Of Trance 184

    MUY BELLO :...

  13. #13
    Fecha de ingreso
    09 octubre 2004
    Ubicación
    Planeta k
    Edad
    34
    Agradecimientos

    Re: State Of Trance 184

    bajando graciasssss
    Comando K.

  14. #14
    Fecha de ingreso
    18 octubre 2004
    Ubicación
    Herrtongebosh
    Edad
    32
    Agradecimientos

    Re: State Of Trance 184

    Muchas gracias...ya lo estoy bajando
    Cuando soy Bueno, soy Bueno... Cuando soy Malo, soy Mejor.

  15. #15
    Fecha de ingreso
    11 agosto 2004
    Ubicación
    Palermo
    Edad
    28
    Agradecimientos

  16. #16
    Fecha de ingreso
    25 diciembre 2004
    Ubicación
    BsAs
    Agradecimientos

    A State of Trance 184

    Armin van Buuren - A State of Trance 184 - February 17, 2005

    Tracklist :
    01. D-Fuse featuring Jes - Living The Dream (Matthew Dekay Remix)
    02. Roland Klinkenberg - Twilight
    03. ID
    04. Ava Mea - In The End
    05. Solid Globe - Lost Cities
    06. Goldenscan - Only with you
    07. Fred Baker vs. Nyram - Confirmation
    08. Primer - The Silver Lining (John O'Callaghan Remix)
    09. Fred Baker vs. Keyboard Kids - All of Us (Fred Baker Remix)
    10. Pulser - Point of Impact
    11. Jonas Steur - Castamara (Tune of The Week)
    12. Marcos - Tribal Affair
    13. Ronski Speed - 2Day
    14. M.I.K.E. - Massive Motion
    15. Armin van Buuren - Birth of An Angel
    16. Andy Moor - Halycon
    17. Ridgewalkers featuring El - Find (Perry O'Neil Remix)
    18. Sophie Sugar - Call Of Tomorrow (John O'Callaghan Remix)


    CUE:
    Código:
    PERFORMER "Armin van Buuren"
    TITLE "A State of Trance 184 (17-02-2005)"
    FILE "Armin_van_Buuren_-_A_State_of_Trance_184_17-02-2005.mp3" MP3
      TRACK 01 AUDIO
        PERFORMER "D-Fuse featuring Jes"
        TITLE "Living The Dream (Matthew Dekay Remix)"
        INDEX 01 00:00:00
      TRACK 02 AUDIO
        PERFORMER "Roland Klinkenberg"
        TITLE "Twilight"
        INDEX 01 07:48:55
      TRACK 03 AUDIO
        TITLE "ID"
        INDEX 01 12:57:05
      TRACK 04 AUDIO
        PERFORMER "Ava Mea"
        TITLE "In The End"
        INDEX 01 17:06:50
      TRACK 05 AUDIO
        PERFORMER "Solid Globe"
        TITLE "Lost Cities"
        INDEX 01 23:57:30
      TRACK 06 AUDIO
        PERFORMER "Goldenscan"
        TITLE "Only with you"
        INDEX 01 31:32:50
      TRACK 07 AUDIO
        PERFORMER "Fred Baker vs. Nyram"
        TITLE "Confirmation"
        INDEX 01 39:30:30
      TRACK 08 AUDIO
        PERFORMER "Primer"
        TITLE "The Silver Lining (John O'Callaghan Remix)"
        INDEX 01 47:37:15
      TRACK 09 AUDIO
        PERFORMER "Fred Baker vs. Keyboard Kids"
        TITLE "All of Us (Fred Baker Remix)"
        INDEX 01 54:51:70
      TRACK 10 AUDIO
        PERFORMER "Pulser"
        TITLE "Point of Impact"
        INDEX 01 61:09:20
      TRACK 11 AUDIO
        PERFORMER "Jonas Steur"
        TITLE "Castamara (Tune of The Week)"
        INDEX 01 66:43:10
      TRACK 12 AUDIO
        PERFORMER "Marcos"
        TITLE "Tribal Affair"
        INDEX 01 72:59:15
      TRACK 13 AUDIO
        PERFORMER "Ronski Speed"
        TITLE "2Day"
        INDEX 01 78:43:05
      TRACK 14 AUDIO
        PERFORMER "M.I.K.E."
        TITLE "Massive Motion"
        INDEX 01 84:44:50
      TRACK 15 AUDIO
        PERFORMER "Armin van Buuren"
        TITLE "Birth of An Angel"
        INDEX 01 91:17:25
      TRACK 16 AUDIO
        PERFORMER "Andy Moor"
        TITLE "Halycon"
        INDEX 01 99:24:50
      TRACK 17 AUDIO
        PERFORMER "Ridgewalkers featuring El"
        TITLE "Find (Perry O'Neil Remix)"
        INDEX 01 107:38:30
      TRACK 18 AUDIO
        PERFORMER "Sophie Sugar"
        TITLE "Call Of Tomorrow (John O'Callaghan Remix)"
        INDEX 01 114:13:50
    [font=Arial][/font]

  17. #17
    Fecha de ingreso
    11 noviembre 2004
    Ubicación
    adsasdasdasdasd
    Agradecimientos

    Re: Armin Van Buuren - State Of Trance 184

    Muy BUENO, ThKS....

    Aguantara la maquina del LABURO todo lo que le estoy metiendo de keruza ??? jejejje

  18. #18
    Fecha de ingreso
    31 agosto 2004
    Ubicación
    Lanus Oeste
    Edad
    34
    Agradecimientos

    Gracioso Re: Armin Van Buuren - State Of Trance 184

    Despues me lo bajo ....

    Gracie...Kero..
    This is...

  19. #19
    Fecha de ingreso
    04 agosto 2004
    Ubicación
    Capital Federal
    Edad
    27
    Agradecimientos

    Re: Armin Van Buuren - State Of Trance 184

    lo acabo de escuchar y es increiblee!! ehehehe bien arribaa me encanto!! me gusto mucho mas que la edicion anterior.

    TEMAZO : Fred Baker vs Nyram - Confirmation

  20. #20
    Fecha de ingreso
    11 agosto 2004
    Ubicación
    Palermo
    Edad
    28
    Agradecimientos

Página 1 de 2 1 2 ÚltimoÚltimo

Etiquetas para este tema

Información de tema

Usuarios viendo este tema

Actualmente hay 1 usuarios viendo este tema. (0 miembros y 1 visitantes)

Temas similares

  1. Respuestas: 0
    Último mensaje: lunes 10 septiembre de 2012, 01:31
  2. Respuestas: 0
    Último mensaje: sábado 05 marzo de 2011, 05:36
  3. Respuestas: 0
    Último mensaje: lunes 21 febrero de 2011, 16:41
  4. Pedido - Cue SET - Trance: Armin Van Buuren - A State Of Trance Episode 321 (11-10-2007)
    Por ajuarezdover en el foro Archivo de Seccion para Pedidos
    Respuestas: 2
    Último mensaje: miércoles 11 junio de 2008, 22:48

Permisos de publicación

  • No puedes crear nuevos temas
  • No puedes responder temas
  • No puedes subir archivos adjuntos
  • No puedes editar tus mensajes
  •