Jimmy Van M @ Pacha Buenos Aires 24.05.2004
Página 1 de 2 1 2 ÚltimoÚltimo
Resultados 1 al 20 de 23
  1. #1
    Fecha de ingreso
    25 diciembre 2004
    Ubicación
    BsAs
    Agradecimientos

    Jimmy Van M @ Pacha Buenos Aires 24.05.2004

    dejo los cues, estoy buscando el tracklist si alguien lo tiene avise plz!


    TITLE "Camel Genuine Sound @ Pacha Buenos Aires 24.05.2004 CD1"
    PERFORMER "Jimmy Van M"
    TRACK 01 AUDIO
    TITLE "01"
    INDEX 01 00:00:00
    TRACK 02 AUDIO
    TITLE "02"
    INDEX 01 06:43:10
    TRACK 03 AUDIO
    TITLE "03"
    INDEX 01 12:38:50
    TRACK 04 AUDIO
    TITLE "04"
    INDEX 01 20:00:45
    TRACK 05 AUDIO
    TITLE "05"
    INDEX 01 26:37:00
    TRACK 06 AUDIO
    TITLE "06"
    INDEX 01 34:30:30
    TRACK 07 AUDIO
    TITLE "07"
    INDEX 01 41:16:52
    TRACK 08 AUDIO
    TITLE "08"
    INDEX 01 47:01:00



    TITLE "Camel Genuine Sound @ Pacha Buenos Aires 24.05.2004 CD2"
    PERFORMER "Jimmy Van M"
    TRACK 01 AUDIO
    TITLE "01"
    INDEX 01 00:00:00
    TRACK 02 AUDIO
    TITLE "02"
    INDEX 01 06:59:59
    TRACK 03 AUDIO
    TITLE "03"
    INDEX 01 14:45:15
    TRACK 04 AUDIO
    TITLE "04"
    INDEX 01 21:55:30
    TRACK 05 AUDIO
    TITLE "05"
    INDEX 01 27:35:35
    TRACK 06 AUDIO
    TITLE "06"
    INDEX 01 34:17:59
    TRACK 07 AUDIO
    TITLE "07"
    INDEX 01 42:42:50
    [font=Arial][/font]

  2. #2
    Fecha de ingreso
    03 agosto 2004
    Ubicación
    Ciudad de Buenos Aires
    Edad
    33
    Agradecimientos

    Re: Jimmy Van M @ Pacha Buenos Aires 24.05.2004

    y el mp3 lo tenes? :p
    I like girls like I like whisky; 15 years old and mixed up with coke

  3. #3
    Fecha de ingreso
    04 agosto 2004
    Ubicación
    Capital Federal
    Edad
    28
    Agradecimientos

    Re: Jimmy Van M @ Pacha Buenos Aires 24.05.2004

    Cita Iniciado por Narcisista
    y el mp3 lo tenes? :p
    yo lo tengo xD




  4. #4
    Fecha de ingreso
    12 octubre 2004
    Ubicación
    Doblando en la esquina
    Agradecimientos

    Re: Jimmy Van M @ Pacha Buenos Aires 24.05.2004

    Noooooo me limaron, me equivoque de año, pense que venia de nuevo en el 2005.
    Igual si alguien tiene el set q avise q lo quiero yo tb.

  5. #5
    Fecha de ingreso
    11 agosto 2004
    Ubicación
    Palermo
    Edad
    28
    Agradecimientos

    Re: Jimmy Van M @ Pacha Buenos Aires 24.05.2004

    solo logro encontrar la cue ... el tracklist ni idea la verdad -.
    "the mysterious process during which what is at first difficult becomes progressively easier and more pleasurable through practice"


  6. #6
    Fecha de ingreso
    25 diciembre 2004
    Ubicación
    BsAs
    Agradecimientos

    Re: Jimmy Van M @ Pacha Buenos Aires 24.05.2004

    Cita Iniciado por Narcisista
    y el mp3 lo tenes? :p
    si lo tengo, mandame un pm con tu user y te agrego asi lo bajas.
    lo mismo para vos gringo.

    esta muy bueno ese set uno de los mejores de èl.
    [font=Arial][/font]

  7. #7
    Fecha de ingreso
    11 enero 2005
    Ubicación
    Cap fed
    Edad
    29
    Agradecimientos

    Re: Jimmy Van M @ Pacha Buenos Aires 24.05.2004

    yo pense q venia de vuelta en el 2005 ..FLASHIE MAALL buuu :(

  8. #8
    Fecha de ingreso
    20 octubre 2004
    Ubicación
    Capital Federal
    Edad
    49
    Agradecimientos

    Re: Jimmy Van M @ Pacha Buenos Aires 24.05.2004

    off topic: La verdad que hay tanta gente inocente en este foro que me enternece, si están para apretarle los cachetitos y todo...
    Dicen que la rompió Jimmy van M esa noche... la verdad que comparado con la Creamfields tiene que ser algo mucho más digno de ser escuchado...
    30/12/2004 - No olvidarse, nos pudo tocar...

  9. #9
    Fecha de ingreso
    25 diciembre 2004
    Ubicación
    BsAs
    Agradecimientos

    Re: Jimmy Van M @ Pacha Buenos Aires 24.05.2004

    gente inocente en este foro ? man que decis ? si te referis a mi conozco mucho de musica electronica, no empece ayer con esto.

    nadie dijo q la rompio me gusto mucho este set y para mi fue unos de los
    mejores de el, no dije q fue el mejor, simplemente uno de los mejores de el para mi.

    no todos tenemos los mismos gustos, a mi tampoco me gusto el de cf.
    Última edición por capsulin; miércoles 26 enero de 2005 a las 21:24
    [font=Arial][/font]

  10. #10
    Fecha de ingreso
    20 diciembre 2004
    Ubicación
    belgrano
    Agradecimientos

    Re: Jimmy Van M @ Pacha Buenos Aires 24.05.2004

    yo lo tengo
    esta muy bueno
    Castigen esas Bandejas

  11. #11
    Fecha de ingreso
    11 agosto 2004
    Ubicación
    Palermo
    Edad
    28
    Agradecimientos

    Re: Jimmy Van M @ Pacha Buenos Aires 24.05.2004

    Hernan que haya tocado mal en creamfields no significa que sea malo -.
    "the mysterious process during which what is at first difficult becomes progressively easier and more pleasurable through practice"


  12. #12
    Fecha de ingreso
    20 octubre 2004
    Ubicación
    Capital Federal
    Edad
    49
    Agradecimientos

    Re: Jimmy Van M @ Pacha Buenos Aires 24.05.2004

    Es cierto digi, hasta Tiesto tocó mal y es indiscutiblemente un grande, por eso creo que lo de JVM en la Cream fue una mala noche que cualquiera la tiene... A ese nivel no hay DJ malos... Quedó aclarada la cuestión!!
    30/12/2004 - No olvidarse, nos pudo tocar...

  13. #13
    Fecha de ingreso
    07 febrero 2005
    Ubicación
    Giran Castle Town
    Edad
    30
    Agradecimientos

    Re: Jimmy Van M @ Pacha Buenos Aires 24.05.2004

    aver.. yo sé 2 temas que puso:
    el primero: Tears for fears - Shout (Skylark mix)
    y luego en el primer cd... será el 6to o 7mo tema:
    Chris Fortier - Yaaah (D Shake Mix)

    Espero que les ayude. Adios.
    [FONT="Impact"]como mantener a un idiota ocupado —lee abajo.
    COMO mantener a un idiota ocupado —lee arriba.
    Overdue Payment http://www.ungraphic.com/stuff/spidey.gif
    [/FONT]

  14. #14
    Fecha de ingreso
    31 agosto 2004
    Ubicación
    Lanus Oeste
    Edad
    35
    Agradecimientos

    Gracioso Re: Jimmy Van M @ Pacha Buenos Aires 24.05.2004

    Es buenisimo el set de jimmy van m @ pacha ...

    l recominendo bajenlo.... yo lo tengo ....!!!!!
    This is...

  15. #15
    Fecha de ingreso
    13 diciembre 2004
    Edad
    35
    Agradecimientos

    Re: Jimmy Van M @ Pacha Buenos Aires 24.05.2004

    che yo tengo uno pero no se si es del que hablan, de donde me lo bajo?????

  16. #16
    Fecha de ingreso
    31 agosto 2004
    Ubicación
    Lanus Oeste
    Edad
    35
    Agradecimientos

    Gracioso Re: Jimmy Van M @ Pacha Buenos Aires 24.05.2004

    Cita Iniciado por el negro
    che yo tengo uno pero no se si es del que hablan, de donde me lo bajo?????
    Bajalo de slsk .... yo lo tengo !!!!
    This is...

  17. #17
    Fecha de ingreso
    02 junio 1998
    Ubicación
    Plus Ultra
    Agradecimientos

    Re: Jimmy Van M @ Pacha Buenos Aires 24.05.2004

    capsulin, de donde sacaste los .cues? Puede ser que vinieron en el torrent original o son los mios? (digo porq soy un adicto de los .cues y posteo en varios foros cuando faltan cues, y tienen el mismo timing :P)


    ACTUALIZADO:

    TITLE "Camel Genuine Sound @ Pacha 24.05.2004"
    PERFORMER "Jimmy Van M"
    FILE "Jimmy Van M - Camel Genuine Sound @ Pacha 24.05.2004 CD1.mp3" MP3
    TRACK 01 AUDIO
    TITLE "Shout (Skylark mix)"
    PERFORMER "01 - Tears For Fears"
    INDEX 0575479918 00:00:00
    TRACK 02 AUDIO
    TITLE "Fade To Gray"
    PERFORMER "02 - Visage"
    INDEX 01381244960 06:43:10
    TRACK 03 AUDIO
    TITLE "03"
    INDEX 0892875575 12:38:50
    TRACK 04 AUDIO
    TITLE "04"
    INDEX 0541803329 20:00:45
    TRACK 05 AUDIO
    TITLE "05"
    INDEX 0807542853 26:37:00
    TRACK 06 AUDIO
    TITLE "Yaaah (D Shake Mix)"
    PERFORMER "06. Chris Fortier"
    INDEX 01868526709 34:30:30
    TRACK 07 AUDIO
    TITLE "07"
    INDEX 01600482927 41:16:52
    TRACK 08 AUDIO
    TITLE "08"
    INDEX 01601467746 47:01:00
    FILE "Jimmy Van M - Camel Genuine Sound @ Pacha 24.05.2004 CD2.mp3" MP3
    TITLE "Jimmy Van M - Camel Genuine Sound @ Pacha 24.05.2004"
    PERFORMER "Jimmy Van M"
    TRACK 01 AUDIO
    TITLE "01"
    INDEX 01 00:00:00
    TRACK 02 AUDIO
    TITLE "02"
    INDEX 01 06:59:59
    TRACK 03 AUDIO
    TITLE "03"
    INDEX 01 14:45:15
    TRACK 04 AUDIO
    TITLE "04"
    INDEX 01 21:55:30
    TRACK 05 AUDIO
    TITLE "05"
    INDEX 01 27:35:35
    TRACK 06 AUDIO
    TITLE "06"
    INDEX 01 34:17:59
    TRACK 07 AUDIO
    TITLE "07"
    INDEX 01 42:42:50

  18. #18
    Fecha de ingreso
    25 diciembre 2004
    Ubicación
    BsAs
    Agradecimientos

    Re: Jimmy Van M @ Pacha Buenos Aires 24.05.2004

    Cobra lo saque de MS.
    y si es el mismo que hizo Spiker!

    abrazo
    [font=Arial][/font]

  19. #19
    Fecha de ingreso
    02 junio 1998
    Ubicación
    Plus Ultra
    Agradecimientos

    Re: Jimmy Van M @ Pacha Buenos Aires 24.05.2004

    ah que boludo :P perdon.

  20. #20
    Fecha de ingreso
    15 septiembre 2004
    Ubicación
    recoleta
    Edad
    28
    Agradecimientos

    Re: Jimmy Van M @ Pacha Buenos Aires 24.05.2004

    el q lo tenga si me lo puede pasar me hace un favor

Página 1 de 2 1 2 ÚltimoÚltimo

Etiquetas para este tema

Información de tema

Usuarios viendo este tema

Actualmente hay 1 usuarios viendo este tema. (0 miembros y 1 visitantes)

Temas similares

  1. Sabado 08.12.12 - Jimmy Van M @ Pacha buenos Aires
    Por marxelo en el foro Eventos Pasados del 2012
    Respuestas: 31
    Último mensaje: sábado 08 diciembre de 2012, 21:35
  2. Jimmy van M @ Pacha Buenos Aires (28.03.2009)
    Por JUAMPI BRIT en el foro Tracklists
    Respuestas: 11
    Último mensaje: miércoles 22 abril de 2009, 23:00
  3. Sabado 28.03.09 - Jimmy Van M @ Pacha Buenos Aires
    Por zacarias_mdq en el foro Eventos Pasados del 2009
    Respuestas: 141
    Último mensaje: sábado 28 marzo de 2009, 23:20
  4. Jimmy van M @ Pacha Buenos Aires (04.08.2007)
    Por OverDrive en el foro Tracklists
    Respuestas: 10
    Último mensaje: sábado 25 agosto de 2007, 13:22
  5. Sabado 04.08.07 - Jimmy Van M @ Pacha Buenos Aires
    Por Kerozene en el foro Eventos Pasados del 2007 - Interior
    Respuestas: 187
    Último mensaje: sábado 04 agosto de 2007, 23:33

Permisos de publicación

  • No puedes crear nuevos temas
  • No puedes responder temas
  • No puedes subir archivos adjuntos
  • No puedes editar tus mensajes
  •