DJ Tatana - Live @ Swiss Trance Allstars at Mad

-- Publicidad --

Aftercluv 1

Resultados 1 al 8 de 8
  1. #1
    Fecha de ingreso
    02 diciembre 2004
    Ubicación
    Buenos Aires
    Edad
    34
    Agradecimientos

    DJ Tatana - Live @ Swiss Trance Allstars at Mad

    Para los que les gusta el trance aca les dejo un set que a mi gusto es uno de los mejores que escuche.
    Lo tube que dividir en 3 partes para poder compartirlo, por eso ademas del set les dejo un programita que es para juntar las 3 partes si les interesa, sino lo escuchan asi y listo

    01 - Tatana - Live @ Swiss Trance Allstars at Mad (28.11.2003) (19MB)

    02 - Tatana - Live @ Swiss Trance Allstars at Mad (28.11.2003) (19MB)

    03 - Tatana - Live @ Swiss Trance Allstars at Mad (28.11.2003) (18,7MB)

    Splitter (Prog para unir los archivos)
    Para unirlos abren el programa elijen el la primera parte del set y le dan click en el boton "Unsplit".

    Tracklist y CUE:

    TRACK 01 AUDIO
    TITLE "01. DJ Tatana - Soul Cry (Matrix Remix)"
    INDEX 01 00:00:00
    TRACK 02 AUDIO
    TITLE "02. Paul Van Dyk - Time Of Our Lives"
    INDEX 01 06:22:31
    TRACK 03 AUDIO
    TITLE "03. DJ Energy - Serenety
    INDEX 01 12:35:55
    TRACK 04 AUDIO
    TITLE "04. Freestate - Release (Dave 202 & Phil Green Remix)"
    INDEX 01 17:48:46
    TRACK 05 AUDIO
    TITLE "05. DJ Energy & Tatana - Liberty"
    INDEX 01 23:52:25
    TRACK 06 AUDIO
    TITLE "06. Osiris - Oneness With The Universe (Wippenberg Remix)"
    INDEX 01 29:46:58
    TRACK 07 AUDIO
    TITLE "07. DJ Shog - Another World"
    INDEX 01 34:42:00
    TRACK 08 AUDIO
    TITLE "08. First Wave vs. Krid P. - Rock Da House"
    INDEX 01 41:30:01
    TRACK 09 AUDIO
    TITLE "09. Slash - Hypnotize (Dave 202 & Phil Green Remix)"
    INDEX 01 50:04:70
    TRACK 10 AUDIO
    TITLE "10. Franchino - 999
    INDEX 01 56:37:72
    TRACK 11 AUDIO
    TITLE "11. ID"
    INDEX 01 62:15:47
    TRACK 12 AUDIO
    TITLE "12. ID"
    INDEX 01 68:15:21
    TRACK 13 AUDIO
    TITLE "13. Motorcycle - As The Rush Comes"
    INDEX 01 73:35:55

    Disfruten!!! y comenten que les parecio el set, a mi me encanto.

  2. #2
    Fecha de ingreso
    19 septiembre 2004
    Ubicación
    San Telmo
    Edad
    32
    Agradecimientos

  3. #3
    Fecha de ingreso
    02 diciembre 2004
    Ubicación
    Buenos Aires
    Edad
    34
    Agradecimientos

    Re: DJ Tatana - Live @ Swiss Trance Allstars at Mad

    Cita Iniciado por djfabric
    nooooooooo te zarpas!!!!!!! eso estaba buscando ..... se zarpa ese chavon!!!!

    Si si si la ZARPA MAL! pero no es un chavon... es una mina jejeje :p

  4. #4
    Fecha de ingreso
    11 agosto 2004
    Ubicación
    Palermo
    Edad
    27
    Agradecimientos

  5. #5
    Fecha de ingreso
    03 octubre 2004
    Ubicación
    Belgrano
    Edad
    33
    Agradecimientos

    Re: DJ Tatana - Live @ Swiss Trance Allstars at Mad

    Cita Iniciado por djfabric
    nooooooooo te zarpas!!!!!!! eso estaba buscando ..... se zarpa ese chavon!!!!
    BEstiaaaaaaaa Dj tatana es una minita jajajjaa
    Muy buen tracklist!!!!!
    Visions Exist to be Lived







  6. #6
    Fecha de ingreso
    25 octubre 2004
    Ubicación
    Quilmes
    Edad
    30
    Agradecimientos

    Re: DJ Tatana - Live @ Swiss Trance Allstars at Mad

    File /files-en/319856/77/01_-_Tatana_-_Live___Swiss_Trance_Allstars_at_Mad__28.11.2003_. mp3 has been deleted.
    Reason: Forbidden work-around of max. file-size via split-files!

    progresive trance
    130 bpm

  7. #7
    Fecha de ingreso
    13 septiembre 2004
    Ubicación
    La Plata
    Agradecimientos

    Re: DJ Tatana - Live @ Swiss Trance Allstars at Mad

    nice set.. me lo habia pasado un amigo..

  8. #8
    Fecha de ingreso
    04 agosto 2004
    Ubicación
    Capital Federal
    Edad
    27
    Agradecimientos

    Re: DJ Tatana - Live @ Swiss Trance Allstars at Mad

    ahah lo teniaa... muy lindo set




Etiquetas para este tema

Información de tema

Usuarios viendo este tema

Actualmente hay 1 usuarios viendo este tema. (0 miembros y 1 visitantes)

Temas similares

  1. Trance Tatana - Trance Connection live at MAD (Rouge.fm) (16-11-2007)
    Por luisonte en el foro Radioshows
    Respuestas: 0
    Último mensaje: martes 20 noviembre de 2007, 10:22

Permisos de publicación

  • No puedes crear nuevos temas
  • No puedes responder temas
  • No puedes subir archivos adjuntos
  • No puedes editar tus mensajes
  •