Perfecto Presents - Hernan Cattaneo - South America (2002) - Página 2

-- Publicidad --

Delta 90.3

Página 2 de 2 PrimerPrimer 1 2
Resultados 21 al 28 de 28
  1. #21
    Fecha de ingreso
    27 enero 2005
    Ubicación
    Ciudad Autónoma de Buenos Aires
    Edad
    29
    Agradecimientos

    Re: Perfecto Presents - Hernan Cattaneo - South America (2002)

    Cita Iniciado por Palufi Ver mensaje
    ves palita, x estas cosas te digo q sos groso
    thx
    "The opinions expressed herein are not necessarily those of my employer, not necessarily mine, and probably not necessary."

  2. #22
    Fecha de ingreso
    28 octubre 2005
    Ubicación
    Moscow
    Edad
    49
    Agradecimientos

    Re: Perfecto Presents - Hernan Cattaneo - South America (2002)

    CUE:

    PERFORMER "Various Artists"
    TITLE "Perfecto Presents Hernan Cattaneo South America CD1"
    REM ** downloaded at Spandel.nL **
    FILE "VA - Perfecto Presents Hernan Cattaneo South America (CD1).mp3" MP3
    TRACK 01 AUDIO
    TITLE "No More Ghosts"
    PERFORMER "Gary Dubbs"
    INDEX 01 00:00:00
    TRACK 02 AUDIO
    TITLE "Silver Man Tango"
    PERFORMER "Jas"
    INDEX 01 09:31:22
    TRACK 03 AUDIO
    TITLE "Twister"
    PERFORMER "Weekend World"
    INDEX 01 15:01:45
    TRACK 04 AUDIO
    TITLE "The Search (Weekend World Remix)"
    PERFORMER "Francesco Farfa Meets The Pleasure Team"
    INDEX 01 20:54:35
    TRACK 05 AUDIO
    TITLE "After 2"
    PERFORMER "Pete Moss Feat. Terra Deva"
    INDEX 01 27:39:20
    TRACK 06 AUDIO
    TITLE "You Are Sleeping"
    PERFORMER "PQM"
    INDEX 01 34:55:17
    TRACK 07 AUDIO
    TITLE "Storyreel (Chris Hampshire's [email protected] Mix)"
    PERFORMER "Interflow Feat. Anna Robinson"
    INDEX 01 44:02:72
    TRACK 08 AUDIO
    TITLE "Phased (Blackwatch Spanish Harlem Dub)"
    PERFORMER "Darko"
    INDEX 01 51:21:62
    TRACK 09 AUDIO
    TITLE "I Can See The Lights"
    PERFORMER "G-Pal Presents GHOS"
    INDEX 01 57:44:20
    TRACK 10 AUDIO
    TITLE "The Way (PQM's Deephead Dub)"
    PERFORMER "Prince Quick Mix"
    INDEX 01 60:57:30
    TRACK 11 AUDIO
    TITLE "Landing (Martin Garcia Edit)"
    PERFORMER "Herman Cataneo"
    INDEX 01 67:13:22

    PERFORMER "Various Artists"
    TITLE "Perfecto Presents Hernan Cattaneo South America CD2"
    REM ** downloaded at Spandel.nL **
    FILE "VA - Perfecto Presents Hernan Cattaneo South America (CD2).mp3" MP3
    TRACK 01 AUDIO
    TITLE "Topaz"
    PERFORMER "Circulation"
    INDEX 01 00:00:00
    TRACK 02 AUDIO
    TITLE "Chilling Moments (Original Mix)"
    PERFORMER "Shmuel Flash"
    INDEX 01 08:42:32
    TRACK 03 AUDIO
    TITLE "Lights Out (Lemon 8 Mix)"
    PERFORMER "North Atlantic"
    INDEX 01 18:09:50
    TRACK 04 AUDIO
    TITLE "Western Nights (Harry Peat Desert Storm Mix)"
    PERFORMER "Izdatso"
    INDEX 01 24:17:50
    TRACK 05 AUDIO
    TITLE "My Lexicon (Cass & Slide Our Lexicon Mix)"
    PERFORMER "Sander Kleinenberg"
    INDEX 01 31:20:50
    TRACK 06 AUDIO
    TITLE "Lazy Monday"
    PERFORMER "Paul Rogers"
    INDEX 01 40:45:15
    TRACK 07 AUDIO
    TITLE "Walking On Fire (Bedrock Mix)"
    PERFORMER "Evolution Feat Jayn Hanna"
    INDEX 01 47:39:32
    TRACK 08 AUDIO
    TITLE "Headstrong (Relentless Vocal Mix)"
    PERFORMER "Tilt Feat Maria Nayler"
    INDEX 01 57:45:70
    TRACK 09 AUDIO
    TITLE "Numb (Nick Muir Mix)"
    PERFORMER "Archive"
    INDEX 01 65:39:00
    [FONT="Verdana"]The Freaks Come Out!!![/FONT]

  3. #23
    Fecha de ingreso
    23 marzo 2006
    Ubicación
    en el infierno
    Edad
    40
    Agradecimientos

    Re: Perfecto Presents - Hernan Cattaneo - South America (2002)

    graciela
    [FONT="Comic Sans MS"]electronic music[/FONT]

  4. #24
    Fecha de ingreso
    17 mayo 2005
    Ubicación
    Devoto
    Agradecimientos

    Re: Perfecto Presents - Hernan Cattaneo - South America (2002)

    Ke GRANDE ke es Hernancito .....
    aca las cosas se desvirtuan... y compulsivamente ...

    "¿Qué tal si en vez de hablar tanto sobre la guerra contra las drogas habláramos un poco sobre las drogas que podrían acabar con las guerras?" A. Hofmann

    P.L.U.R. =)

  5. #25
    Fecha de ingreso
    13 julio 2005
    Ubicación
    Rosario
    Edad
    27
    Agradecimientos

    Re: Perfecto Presents - Hernan Cattaneo - South America (2002)

    No se, pero me llama el "Perfecto Record Mixed by Hernan Cattaneo"


  6. #26
    Fecha de ingreso
    09 octubre 2006
    Ubicación
    Avellaneda
    Edad
    30
    Agradecimientos

    Re: Perfecto Presents - Hernan Cattaneo - South America (2002)

    no te puedo creer man !!

    este cd yo lo tenia hace banda m lo habia comprado lo tenia original todo !!

    y los perdi una vez q lo lleve a la costa :(

    la verdad t pasast !!

    es excelenT !!

    es la muestra perfecta de lo q tanto prometia hernan....aunq si nunca escucharon este cd ....se van a sorprender y mucho !!


    es RECOMENDABLEEEE !!!
    [FONT="Arial Black"]`"Creo que en casi todos mis sets hay algun track con historia.
    La clave esta en sorprender al publico con algo que no espera en ese momento"

    Hernan Cattaneo[/FONT]



  7. #27
    Fecha de ingreso
    29 junio 2009
    Ubicación
    Lugano City
    Edad
    25
    Agradecimientos

    Re: Perfecto Presents - Hernan Cattaneo - South America (2002)

    Muchchos tuve un gran error d boludo y sin querer borre el CD2, no habra algun mirrorrrrrrrr ? lkdsjglksdng

  8. #28
    Fecha de ingreso
    26 diciembre 2010
    Ubicación
    José León Suárez
    Edad
    25
    Agradecimientos

    Re: Perfecto Presents - Hernan Cattaneo - South America (2002)

    alguien seria tan amable de subir algun mirror??? ya que no tengo esta reliquia...
    graciass!



    No sigo modas, pongo lo que me parece interesante. Mi personalidad está en el sonido y eso me mantiene en el lugar donde me encuentro.
    Hernán Cattáneo

Página 2 de 2 PrimerPrimer 1 2

Etiquetas para este tema

Información de tema

Usuarios viendo este tema

Actualmente hay 1 usuarios viendo este tema. (0 miembros y 1 visitantes)

Temas similares

  1. Pedido - Musica Hernan Cattaneo - South America
    Por djmallo en el foro Archivo de Seccion para Pedidos
    Respuestas: 1
    Último mensaje: jueves 27 marzo de 2008, 05:31

Permisos de publicación

  • No puedes crear nuevos temas
  • No puedes responder temas
  • No puedes subir archivos adjuntos
  • No puedes editar tus mensajes
  •