Paolo Mojo - Balance 009 [2006]

-- Publicidad --

Aftercluv 6

Resultados 1 al 11 de 11
  1. #1
    Fecha de ingreso
    28 octubre 2005
    Ubicación
    Moscow
    Edad
    48
    Agradecimientos

    Paolo Mojo - Balance 009 [2006]


    Label: EQ [Grey]
    Catalog#: EQGCD013
    Format: 2xCD , Mixed
    Country: Australia
    Released: 10 Apr 2006
    Genre: Electronic
    Style: Progressive House
    Credits: DJ Mix - Paolo Mojo

    “Paolo Mojo is one of the most talented new DJs; he’s a man you’ll be hearing a lot more from.”
    John Digweed

    “He plays good music!”
    Lee Burridge

    “I think (Paolo’s) is one of the best demo cds I have heard for a long time.”
    Danny Tenaglia

    “He is constantly pushing and finding quality house music. One of the best new DJs for sure.”
    Hernan Cattaneo

    “One of the brightest stars of the future. Destined for great things.” Sasha, 2005

    “A future star of dance…. Possessing a unique sound and we think... a unique talent.”
    Pete Tong, BBC Radio One 2005



    TRACKLISTING

    Disc 1
    Kayot - One Night in Cuba (Intro edit)
    Audiomontage - Naughty Neighbour
    Eddie Richards - M’Baby
    Weekender - Sunday Session
    Alex Kid - Pick it Up
    Soul Edge - Wormhole (Throatcutters EP)
    Lil Mike - Space Cadet
    Mish Mash - Speechless (Three’s Lost in Translation mix)
    Trick and Kubik feat. Valeska - Easy
    Shirley Lites - Heat You Up (Gerd’s 4 Lux mix)
    Harold Heath - Long Relationships (Asad Rizvi mix)
    Wighnomy Bros - Wombat
    Timewriter - Lion Steps
    Davina - Don’t You Want it
    Underground Resistance - Transitions
    Vincenzo & Steve Ferrand - Love the Madness
    Pepe Braddock - Deep Burnt

    Disc 2
    Paolo Mojo - Ruckus (Original Extended mix)
    Solar Sides - Midnight Mood (No Sax Please I’m
    British edit)
    Oscar - The Drum (Version Hypnotique)
    Paolo Mojo - Ruckus (Buick Project remix)
    House of Black Dress - Say it (Nathan’s 06 rework)
    Paolo Mojo - Everybody (Cass & Mangan remix)
    The Vanisher - The Tic-Tac Tactic (Osborne’s
    Simulacrum remix)
    Der Dritte Raum - Raumzeit
    Inner City - Say Something (Sebastian Leger remix)
    Foremost Poets - Moonraker (Accapella)
    Robert Owens - I’ll Be Your Friend (Leon Roberts edit)
    Nathan Fake - The Sky is Pink (Icelandic version)
    Deee-Lite - Good Beat (Accapella)
    Ada - Maps (Michael Mayer & Tobias Thomas remix)
    Michel De Hey - Camera (Funk D’Void remix)
    Sascha Funke - 2 B Original
    Petter - Modern Eternity
    Sebastien Tellier - La Ritournelle


    CD1(125 MB):
    http://up-file.com/download/30eea174...-CD01.rar.html
    http://www.hemenpaylas.com/download/..._CD01.rar.html
    http://www.axifile.com/?7523389
    http://www.megaupload.com/?d=4DHVE0VS

    CD2(128 MB):
    http://up-file.com/download/096e3140...-CD02.rar.html
    http://www.hemenpaylas.com/download/..._CD02.rar.html
    http://www.axifile.com/?5939594
    http://www.megaupload.com/?d=HJA23R59
    Última edición por AndreXIII; viernes 14 abril de 2006 a las 16:25
    [FONT="Verdana"]The Freaks Come Out!!![/FONT]

  2. #2
    Fecha de ingreso
    03 octubre 2005
    Ubicación
    palermo
    Agradecimientos

    Re: Paolo Mojo - Balance 009 [2006]

    Thnx Andre
    Great contribution

  3. #3
    Fecha de ingreso
    01 octubre 2005
    Ubicación
    Rg
    Agradecimientos

    Re: Paolo Mojo - Balance 009 [2006]

    puffffffff!! tank!!
    [FONT="Book Antiqua"]Por una Love Family Park en argentina!!! [/FONT]

  4. #4
    Fecha de ingreso
    11 abril 2005
    Ubicación
    floress
    Edad
    27
    Agradecimientos

    Re: Paolo Mojo - Balance 009 [2006]

    seee, sarpado
    gracias
    saludoss

  5. #5
    Fecha de ingreso
    02 julio 2005
    Ubicación
    Fox River
    Edad
    37
    Agradecimientos

    Re: Paolo Mojo - Balance 009 [2006]

    para muchos uno de los discos mas esperado del 2006!!! good job Andre
    Lost in a Melody

    John Digweed @ Moonpark XII



  6. #6
    Fecha de ingreso
    28 agosto 2005
    Ubicación
    adrogue
    Edad
    29
    Agradecimientos

    Re: Paolo Mojo - Balance 009 [2006]

    no creo q sea lo mio este dj, pero quiero escucharlo igual. aparte los Balance siempre estuvieron buenos.
    - techminimaldubclick .

  7. #7
    Fecha de ingreso
    05 junio 2005
    Ubicación
    Goa
    Edad
    31
    Agradecimientos

    Re: Paolo Mojo - Balance 009 [2006]

    Awesome!!
    Really wanted this...Thnx
    Artificially Intelligent.....Naturally Brilliant


    Party Generation

  8. #8
    Fecha de ingreso
    03 noviembre 2004
    Ubicación
    Mendoza City
    Edad
    28
    Agradecimientos

  9. #9
    Fecha de ingreso
    27 enero 2006
    Ubicación
    Brighton
    Edad
    30
    Agradecimientos

    Re: Paolo Mojo - Balance 009 [2006]

    you do it again andre, thanks a whole lot

  10. #10
    Fecha de ingreso
    28 octubre 2005
    Ubicación
    Moscow
    Edad
    48
    Agradecimientos

    Re: Paolo Mojo - Balance 009 [2006]

    PERFORMER "Paolo Mojo"
    TITLE "Balance 009 (Disc 1)"
    FILE "01-VA-Balance_009__Mixed_By_Paolo_Mojo-TGX.mp3" MP3
    TRACK 01 AUDIO
    TITLE "One Night In Cuba (Intro Edit)"
    PERFORMER "Kayot"
    INDEX 01 00:00:00
    TRACK 02 AUDIO
    TITLE "Naughty Neighbour"
    PERFORMER "Audiomontage"
    INDEX 01 02:14:21
    TRACK 03 AUDIO
    TITLE "M’Baby"
    PERFORMER "Eddie Richards"
    INDEX 01 08:22:21
    TRACK 04 AUDIO
    TITLE "Sunday Session"
    PERFORMER "Weekender"
    INDEX 01 12:27:25
    TRACK 05 AUDIO
    TITLE "Pick It Up"
    PERFORMER "Alex Kid"
    INDEX 01 19:05:05
    TRACK 06 AUDIO
    TITLE "Wormhole (Throatcutters EP)"
    PERFORMER "Soul Edge"
    INDEX 01 24:41:11
    TRACK 07 AUDIO
    TITLE "Space Cadet"
    PERFORMER "Lil Mike"
    INDEX 01 29:04:28
    TRACK 08 AUDIO
    TITLE "Speechless (Three's 'Lost In Translation' Mix)"
    PERFORMER "Mish Mash"
    INDEX 01 31:52:07
    TRACK 09 AUDIO
    TITLE "Easy"
    PERFORMER "Trick & Kubik Feat Valeska"
    INDEX 01 35:25:22
    TRACK 10 AUDIO
    TITLE "Heat You Up (Melt You Down) (Gerd's '4 Lux' Mix)"
    PERFORMER "Shirley Lites"
    INDEX 01 40:59:61
    TRACK 11 AUDIO
    TITLE "Long Relationships (Asad Rizvi Mix)"
    PERFORMER "Harold Heath"
    INDEX 01 45:41:47
    TRACK 12 AUDIO
    TITLE "Wombat"
    PERFORMER "Wighnomy Bros"
    INDEX 01 47:12:23
    TRACK 13 AUDIO
    TITLE "Lion Steps"
    PERFORMER "Timewriter"
    INDEX 01 51:00:42
    TRACK 14 AUDIO
    TITLE "Don't You Want It"
    PERFORMER "Davina"
    INDEX 01 55:10:67
    TRACK 15 AUDIO
    TITLE "Transitions"
    PERFORMER "Underground Resistance"
    INDEX 01 58:28:48
    TRACK 16 AUDIO
    TITLE "Love The Madness"
    PERFORMER "Vincenzo & Steve Ferrand"
    INDEX 01 64:10:36
    TRACK 17 AUDIO
    TITLE "Deep Burnt"
    PERFORMER "Pepe Braddock"
    INDEX 01 69:11:71


    PERFORMER "Paolo Mojo"
    TITLE "Balance 009 (Disc 2)"
    FILE "02-VA-Balance_009__Mixed_By_Paolo_Mojo-TGX.mp3" MP3
    TRACK 01 AUDIO
    TITLE "Ruckus (Original Extended Mix)"
    PERFORMER "Paolo Mojo"
    INDEX 01 00:00:00
    TRACK 02 AUDIO
    TITLE "Midnight Mood (No Sax Please I'm British Edit)"
    PERFORMER "Solar Sides"
    INDEX 01 07:17:72
    TRACK 03 AUDIO
    TITLE "The Drum (Version Hypnotique)"
    PERFORMER "Oscar"
    INDEX 01 10:41:36
    TRACK 04 AUDIO
    TITLE "Ruckus (Buick Project Mix)"
    PERFORMER "Paolo Mojo"
    INDEX 01 14:57:36
    TRACK 05 AUDIO
    TITLE "Say It (Nathan Larsen's 06 Rework)"
    PERFORMER "House Of Black Dress"
    INDEX 01 19:13:08
    TRACK 06 AUDIO
    TITLE "Everybody (Cass & Mangan Mix)"
    PERFORMER "Paolo Mojo"
    INDEX 01 23:13:28
    TRACK 07 AUDIO
    TITLE "The Tic-Tac Tactic (Osborne's 'Simulacrum' Mix)"
    PERFORMER "The Vanisher"
    INDEX 01 26:43:26
    TRACK 08 AUDIO
    TITLE "Raumzeit"
    PERFORMER "Der Dritte Raum"
    INDEX 01 32:27:50
    TRACK 09 AUDIO
    TITLE "Say Something (Sebastian Leger Mix)"
    PERFORMER "Inner City"
    INDEX 01 35:12:10
    TRACK 10 AUDIO
    TITLE "Moonraker (Accapella)"
    PERFORMER "Foremost Poets"
    INDEX 01 41:25:26
    TRACK 11 AUDIO
    TITLE "I'll Be Your Friend"
    PERFORMER "Robert Owens"
    INDEX 01 43:39:34
    TRACK 12 AUDIO
    TITLE "The Sky Is Pink (Icelandic Version)"
    PERFORMER "Nathan Fake"
    INDEX 01 45:26:51
    TRACK 13 AUDIO
    TITLE "Good Beat (Accapella)"
    PERFORMER "Deee-Lite"
    INDEX 01 49:47:39
    TRACK 14 AUDIO
    TITLE "Maps (Michael Mayer & Tobias Thomas Mix)"
    PERFORMER "Ada"
    INDEX 01 52:38:13
    TRACK 15 AUDIO
    TITLE "Camera (Funk D’Void Mix)"
    PERFORMER "Michel De Hey"
    INDEX 01 55:17:36
    TRACK 16 AUDIO
    TITLE "2 B Original"
    PERFORMER "Sascha Funke"
    INDEX 01 60:42:66
    TRACK 17 AUDIO
    TITLE "Modern Eternity"
    PERFORMER "Petter"
    INDEX 01 63:54:58
    TRACK 18 AUDIO
    TITLE "La Ritournelle"
    PERFORMER "Sebastien Tellier"
    INDEX 01 69:19:08
    [FONT="Verdana"]The Freaks Come Out!!![/FONT]

  11. #11
    Fecha de ingreso
    19 octubre 2005
    Ubicación
    Vicente Lopez
    Edad
    37
    Agradecimientos

    Re: Paolo Mojo - Balance 009 [2006]

    thanks!!! let´s see how it sounds...
    DEI



Etiquetas para este tema

Información de tema

Usuarios viendo este tema

Actualmente hay 1 usuarios viendo este tema. (0 miembros y 1 visitantes)

Temas similares

  1. Pedido - Mirror Paolo Mojo - Balance 009
    Por Maty 10 en el foro Archivo de Seccion para Pedidos
    Respuestas: 1
    Último mensaje: martes 17 junio de 2008, 22:24
  2. Pedido - Mirror VA-Balance 009 (Mixed by Paolo Mojo)
    Por el goma en el foro Seccion para Pedidos
    Respuestas: 1
    Último mensaje: domingo 10 junio de 2007, 20:35
  3. Respuestas: 6
    Último mensaje: miércoles 01 marzo de 2006, 13:39

Permisos de publicación

  • No puedes crear nuevos temas
  • No puedes responder temas
  • No puedes subir archivos adjuntos
  • No puedes editar tus mensajes
  •