John Digweed - Fabric 20

-- Publicidad --

Delta 90.3

Resultados 1 al 16 de 16
  1. #1
    Fecha de ingreso
    25 diciembre 2004
    Ubicación
    BsAs
    Agradecimientos

    Gracioso John Digweed - Fabric 20

    [font=Arial]les dejo el tracklist para los que no lo tienen, es altamente recomendado.[/font]
    [font=Arial][/font]
    [font=Arial]01 - Pete Moss - Strive To Live (16B Mix) (6:53)
    02 - Adam Johnson - Traber (2:55)
    03 - Repair - Forgive & Forget (Richard Davis Mix) (4:34)
    04 - Dj Rasoul - True Science (4:35)
    05 - The Glass - Wont Bother Me (20-20 Mix) (3:43)
    06 - Billy Dalessandro - In The Dark (6:48)
    07 - Bobby Peru - Venom (2:48)
    08 - Martin Solveig - Rocking Music (Martin Solveig Dub) (4:35)
    09 - Slam - Lie To Me (Freestyleman Thirsty Monk Dub) (5:05)
    10 - Angel Alanis - Knob Job (3:34)
    11 - Infusion - Better World (Josh Wink Mix) (6:45)
    12 - Superpitcher - Happiness (Michael Mayer Mix) (6:33)
    13 - Joel Mull - Emico (5:13)
    14 - Matrix & Danny J - Vertigo (Goldtrix Mix) (6:47)
    [/font]
    Última edición por capsulin; miércoles 09 marzo de 2005 a las 02:09
    [font=Arial][/font]

  2. #2
    Fecha de ingreso
    12 octubre 2004
    Ubicación
    Haedo
    Edad
    32
    Agradecimientos

    Re: John Digweed - Fabric 20

    Muchas gracias padre! con esto vas sumando puntos para dejar de ser usuario a prueba
    Gracias de nuevo
    jackcoke

  3. #3
    Fecha de ingreso
    11 diciembre 2004
    Ubicación
    Cap Fed
    Agradecimientos

    Re: John Digweed - Fabric 20

    Digweed ya de x si es groso asi q debe estar bueno =) Ahora me bajo un par de temas para ver q onda... si me copa lo bajo todo

  4. #4
    Fecha de ingreso
    11 agosto 2004
    Ubicación
    Palermo
    Edad
    28
    Agradecimientos

    Re: John Digweed - Fabric 20

    muy buenos temas, aunke algunos no me gustan para nada.
    pero contanos, es un Mix Album, un set? que es?
    "the mysterious process during which what is at first difficult becomes progressively easier and more pleasurable through practice"


  5. #5
    Fecha de ingreso
    29 septiembre 2004
    Ubicación
    Bs As
    Agradecimientos

    Re: John Digweed - Fabric 20

    es el proximo CD q va a salir el 17 de enero,no?

    VJ MODE y proximos Gigs
    www.myspace.com/d3mian

  6. #6
    Fecha de ingreso
    25 diciembre 2004
    Ubicación
    BsAs
    Agradecimientos

    Re: John Digweed - Fabric 20

    bueno les cuento q es el ultimo cd de JD,
    es un set tocado en la disco fabric en inglaterra, y el
    estilo del cd es electro house y acid.
    Las mezclas son increibles, muy finas y recomiendo escucharlo
    entero, tiene unas bajadas de aquellas.....

    El nuevo lanzamiento en CD de la aclamada serie Fabric viene de un DJ que es uno de las tendencias de la música dance. El ha tocado en casi cada rincón del mundo, junto a su viejo socio Sasha, el ha realizado algunos CDs mezclados en el pasado, como Renaissance y Northern Exposure series, que definió un estandar para compilados de música dance underground.
    Fabric es uno de los mejores clubs en el mundo entero, con sus 3 pistas su arquitectura y su sistema de sonido hacen que las grabaciones salgan en vivo. Era solo cuestión de tiempo para que estos dos nombres se cruzaran entre si, Fabric y Digweed, ambos tienen algo en común: pura música. Respecto a los 20 lanzamientos de la serie Fabric, John Digweed dice: "Este CD es un set de 5 horas en Fabric, condensado dentro de 74 minutos, y espero que sorprenda a poca gente".


    http://www.fabriclondon.com/club.art...ease=fab20/joh

    El compilado estará disponible para los subscriptos a Fabric desde el 3 de Enero y en tiendas de discos cruzando Europa desde el 17 de Enero del 2005, siguiendo al resto del mundo en Marzo del 2005.

    [font=Arial][/font]

  7. #7
    Fecha de ingreso
    11 agosto 2004
    Ubicación
    Palermo
    Edad
    28
    Agradecimientos

    Re: John Digweed - Fabric 20

    barbara la data
    muy bien ahi nene
    "the mysterious process during which what is at first difficult becomes progressively easier and more pleasurable through practice"


  8. #8
    Fecha de ingreso
    11 agosto 2004
    Ubicación
    Palermo
    Edad
    28
    Agradecimientos

    Re: John Digweed - Fabric 20

    cuando lo escuche bien dejo review,
    mientras tanto, el cue
    PERFORMER "VA"
    TITLE "Fabric 20 Mixed By John Digweed"
    FILE "01-va-fabric_20_mixed_by_john_digweed-mns.mp3" MP3
    TRACK 01 AUDIO
    TITLE "Strive To Live (16B Mix)"
    PERFORMER "Pete Moss"
    INDEX 01 00:00:00
    TRACK 02 AUDIO
    TITLE "Traber"
    PERFORMER "Adam Johnson"
    INDEX 00 06:53:61
    INDEX 01 06:53:62
    TRACK 03 AUDIO
    TITLE "Forgive & Forget (Richard Davis Mix)"
    PERFORMER "Repair"
    INDEX 00 09:49:50
    INDEX 01 09:49:51
    TRACK 04 AUDIO
    TITLE "True Science"
    PERFORMER "Dj Rasoul"
    INDEX 00 14:25:05
    INDEX 01 14:25:06
    TRACK 05 AUDIO
    TITLE "Wont Bother Me (20:20 Mix)"
    PERFORMER "The Glass"
    INDEX 00 19:00:47
    INDEX 01 19:00:48
    TRACK 06 AUDIO
    TITLE "In The Dark"
    PERFORMER "Billy Dalessandro"
    INDEX 00 22:44:39
    INDEX 01 22:44:40
    TRACK 07 AUDIO
    TITLE "Venom"
    PERFORMER "Bobby Peru"
    INDEX 00 29:34:03
    INDEX 01 29:34:04
    TRACK 08 AUDIO
    TITLE "Rocking Music (Martin Solveig Dub)"
    PERFORMER "Martin Solveig"
    INDEX 00 32:22:32
    INDEX 01 32:22:33
    TRACK 09 AUDIO
    TITLE "Lie To Me (Freestyleman Thirsty Monk Dub)"
    PERFORMER "Slam"
    INDEX 00 36:58:01
    INDEX 01 36:58:02
    TRACK 10 AUDIO
    TITLE "Knob Job"
    PERFORMER "Angel Alanis"
    INDEX 00 42:04:33
    INDEX 01 42:04:34
    TRACK 11 AUDIO
    TITLE "Better World (Josh Wink Mix)"
    PERFORMER "Infusion"
    INDEX 00 45:39:06
    INDEX 01 45:39:07
    TRACK 12 AUDIO
    TITLE "Happiness (Michael Mayer Mix)"
    PERFORMER "Superpitcher"
    INDEX 00 52:24:74
    INDEX 01 52:25:00
    TRACK 13 AUDIO
    TITLE "Emico"
    PERFORMER "Joel Mull"
    INDEX 00 58:59:26
    INDEX 01 58:59:27
    TRACK 14 AUDIO
    TITLE "Vertigo (Goldtrix Mix)"
    PERFORMER "Matrix & Danny J"
    INDEX 00 64:13:33
    INDEX 01 64:13:34
    "the mysterious process during which what is at first difficult becomes progressively easier and more pleasurable through practice"


  9. #9
    Fecha de ingreso
    25 octubre 2004
    Ubicación
    Quilmes
    Edad
    31
    Agradecimientos

    Re: John Digweed - Fabric 20

    lo baje hace unos dias, esta todo el cd muy copado, menos un tema [no me acuerdo bien cual es] que para mi, es realmente malo, pero el resto del cd esta de 10, como todo lo de este flaco
    progresive trance
    130 bpm

  10. #10
    Fecha de ingreso
    25 diciembre 2004
    Ubicación
    BsAs
    Agradecimientos

    Re: John Digweed - Fabric 20

    si vistes lo que es, muyy buen electro house! discazzo!
    [font=Arial][/font]

  11. #11
    Fecha de ingreso
    24 agosto 2004
    Ubicación
    Pilar
    Agradecimientos

    Re: John Digweed - Fabric 20

    es muy grosooo!
    LO RECOMIENDO

  12. #12
    Fecha de ingreso
    20 octubre 2004
    Ubicación
    Capital Federal
    Edad
    49
    Agradecimientos

    Re: John Digweed - Fabric 20

    Yo estoy bajándolo pero viene lenta la mano... Un par de días me va a llevar...
    30/12/2004 - No olvidarse, nos pudo tocar...

  13. #13
    Fecha de ingreso
    20 octubre 2004
    Ubicación
    Capital Federal
    Edad
    49
    Agradecimientos

    Re: John Digweed - Fabric 20

    Bueh, el sábado 5 de marzo terminó de bajar el cd completo de esta BESTIA!! es una delicia como levanta temas que por ahi, escuchados sueltos no te dicen nada, realmente, un MOSTRO JUANCITO!!
    Última edición por hganton; lunes 07 marzo de 2005 a las 00:10
    30/12/2004 - No olvidarse, nos pudo tocar...

  14. #14
    Fecha de ingreso
    04 agosto 2004
    Ubicación
    Capital Federal
    Edad
    28
    Agradecimientos

    Re: John Digweed - Fabric 20

    jaa.. esta muy buenooo ... creo q salio una nota sobre este CD en la "Rolling Stone" ehehhe




  15. #15
    Fecha de ingreso
    19 diciembre 2004
    Ubicación
    Mar del Plata Electronic City
    Edad
    33
    Agradecimientos

    Re: John Digweed - Fabric 20

    sisisisisisi.. yo lo tengoooo es muuuuuuy grosoooo!!!

  16. #16
    Fecha de ingreso
    24 agosto 2004
    Ubicación
    Pilar
    Agradecimientos

    Re: John Digweed - Fabric 20

    Cita Iniciado por juan_smile
    jaa.. esta muy buenooo ... creo q salio una nota sobre este CD en la "Rolling Stone" ehehhe
    sisi, asi es !!

Etiquetas para este tema

Información de tema

Usuarios viendo este tema

Actualmente hay 1 usuarios viendo este tema. (0 miembros y 1 visitantes)

Temas similares

  1. Pedido - Mirror Fabric 20 Mixed By John Digweed
    Por SºFi.m* en el foro Archivo de Seccion para Pedidos
    Respuestas: 1
    Último mensaje: martes 27 mayo de 2008, 23:15
  2. Pedido - Musica John Digweed - Fabric 20
    Por woscar99 en el foro Seccion para Pedidos
    Respuestas: 2
    Último mensaje: martes 31 julio de 2007, 18:55
  3. John Digweed - Live @ Fabric (10-02-2007)
    Por alekcei en el foro SETs
    Respuestas: 0
    Último mensaje: lunes 07 mayo de 2007, 15:33
  4. John Digweed - Fabric 20 (2005)
    Por chApu en el foro SETs
    Respuestas: 11
    Último mensaje: martes 25 octubre de 2005, 10:23

Permisos de publicación

  • No puedes crear nuevos temas
  • No puedes responder temas
  • No puedes subir archivos adjuntos
  • No puedes editar tus mensajes
  •