GT vs Project C 2006 (Set + Cue)

-- Publicidad --

Delta 90.3

Resultados 1 al 2 de 2
  1. #1
    Fecha de ingreso
    25 octubre 2005
    Ubicación
    Capital Federal
    Edad
    37
    Agradecimientos

    GT vs Project C 2006 (Set + Cue)

    PERFORMER "GT vs Project C"
    TITLE "Voices Of Spring 2006 (Dreams)"
    FILE "01_GT_vs_Project_C_-_Voices_Of_Spring_2006_(Dreams).mp3" MP3
    TRACK 01 AUDIO
    TITLE "Robbie Rivera - Float Away (2005 Vocal Mix)"
    INDEX 01 00:00:00
    TRACK 02 AUDIO
    TITLE "Aspekt - Hijack (Original Mix)"
    INDEX 01 08:07:71
    TRACK 03 AUDIO
    TITLE "Sun Decade - Have It All (Thomas Penton Remix)"
    INDEX 01 13:32:74
    TRACK 04 AUDIO
    TITLE "AM - Arise (Hammer & Funabashi Remix)"
    INDEX 01 19:42:34
    TRACK 05 AUDIO
    TITLE "Keenan vs Anderson - Drift Away (stel & Goodnews Remix)"
    INDEX 01 27:56:54
    TRACK 06 AUDIO
    TITLE "Hammer & Funabashi ft Angie Hedman - This Moment (Original Mix)"
    INDEX 01 33:35:31
    TRACK 07 AUDIO
    TITLE "AVB ft Nadia Ali - Who Is Watching (Tonedepth Remix)"
    INDEX 01 41:48:68
    TRACK 08 AUDIO
    TITLE "Jan Johnston Meets J. Joy - Rush (Original Mix)"
    INDEX 01 50:31:38
    TRACK 09 AUDIO
    TITLE "Velvet Girl feat. Anita Kelsey - Satisfy (Club Mix)"
    INDEX 01 56:46:66
    TRACK 10 AUDIO
    TITLE Deep Dish ft Stevie Nicks - Dreams (Extended Club Mix)"
    INDEX 01 63:09:54
    TRACK 11 AUDIO
    TITLE "Junkie XL - Today (Extended Mix)"
    INDEX 01 69:32:38


    PERFORMER "GT vs Project C"
    TITLE "Voices Of Spring 2006 (Waterfall)"
    FILE "02_GT_vs_Project_C_-_Voices_Of_Spring_2006_(Waterfall).mp3" MP3
    TRACK 01 AUDIO
    TITLE "Solarstone & Jes - Like A Waterfall (Solarstone Club Mix)"
    INDEX 01 00:00:00
    TRACK 02 AUDIO
    TITLE "Thrillseekers ft Gina Dootson - By Your Side (Original Mix)"
    INDEX 01 08:25:07
    TRACK 03 AUDIO
    TITLE "Headstrong Feat Tiff Lacey - Show Me The Love (Judge Jules Edit)"
    INDEX 01 14:02:45
    TRACK 04 AUDIO
    TITLE "FB ft. Edun - Who's Knocking (Ferry Corsten Mix)"
    INDEX 01 18:47:39
    TRACK 05 AUDIO
    TITLE "Above & Beyond - Alone Tonight (Club Mix)"
    INDEX 01 26:25:52
    TRACK 06 AUDIO
    TITLE "Lustral - Everytime (Riley & Durrant Mix)"
    INDEX 01 33:22:05
    TRACK 07 AUDIO
    TITLE "Solarscape - Alive (Ronski Speed With Stoneface & Terminal Vox)"
    INDEX 01 40:03:47
    TRACK 08 AUDIO
    TITLE "Sun Decade - Have It All (Original Vocal Mix)"
    INDEX 01 45:51:34
    TRACK 09 AUDIO
    TITLE "Recluse - Emotional Void (Original Mix)"
    INDEX 01 53:22:51
    TRACK 10 AUDIO
    TITLE "DJ Tatana ft Jael - Always On My Mind (DJ Tatana Sirup Mix)"
    INDEX 01 59:51:12
    TRACK 11 AUDIO
    TITLE "DJ Tatana ft Joanna - If I Could (Ronski Speed Remix)"
    INDEX 01 65:13:67
    TRACK 12 AUDIO
    TITLE "Super 8 vs DJ Tab - Helsinki Scorchin (Alex Morph Remix)"
    INDEX 01 72:10:26

    http://www.megaupload.com/?d=4NUN733W


    http://www.megaupload.com/?d=4NUN733W




    ...

  2. #2
    Fecha de ingreso
    03 marzo 2006
    Ubicación
    WasteLand
    Agradecimientos

    Re: GT vs Project C 2006 (Set + Cue)

    gracias bajandooooooo
    Ale Del Valle Dj/Producer


Etiquetas para este tema

Información de tema

Usuarios viendo este tema

Actualmente hay 1 usuarios viendo este tema. (0 miembros y 1 visitantes)

Temas similares

  1. Beyond Euphoria (Mixed by DT8 Project) 2 CD 2006
    Por Jamirobruno en el foro SETs
    Respuestas: 2
    Último mensaje: sábado 20 octubre de 2007, 00:06
  2. Respuestas: 1
    Último mensaje: domingo 11 junio de 2006, 18:17
  3. MYNC Project - Essential Mix (21-05-2006)
    Por Lifeless en el foro SETs
    Respuestas: 0
    Último mensaje: domingo 21 mayo de 2006, 15:00

Permisos de publicación

  • No puedes crear nuevos temas
  • No puedes responder temas
  • No puedes subir archivos adjuntos
  • No puedes editar tus mensajes
  •