Armin Van Buuren - A State Of Trance Episode 242 (30-03-06) - Página 2
Página 2 de 2 PrimerPrimer 1 2
Resultados 21 al 27 de 27
  1. #21
    Fecha de ingreso
    12 agosto 2005
    Ubicación
    Donde suene bien
    Edad
    36
    Agradecimientos

    Re: Armin Van Buuren - A State Of Trance Episode 242 (30-03-06)

    Es un groso maaaaal...
    Emocionante conmovedor... Sin palabrtas creo....
    Rolo

  2. #22
    Fecha de ingreso
    19 noviembre 2005
    Ubicación
    en un vynilo
    Edad
    34
    Agradecimientos

    Re: Armin Van Buuren - A State Of Trance Episode 242 (30-03-06)

    para ir palpitando su llegado
    bien ahi jamirobruno!!!!!!!!!!!!!!!!!!!!!

    Cita Iniciado por theskywaspink Ver mensaje
    no se aca estan todos todos todos los state of trance !!!!
    http://www.mininova.org/det/218047
    (2001-2006)
    40gb
    torrents gracias!!!
    Última edición por shine_coco; lunes 03 abril de 2006 a las 11:36 Razón: Sistema Automatico de Union de Mensajes Duplicados
    Activa vs. Chris & Matt Kidd “U.R.” (Stoneface & Terminal mix) (Discover)
    Jochen Miller - Face Value (Extended)[High Contrast]
    Eddie Sender - Sandwalker (Original Mix)[Monster Digital]
    Bryan Kearney - More To Life (Dave Schiemann Remix)[Discover White Label]
    Comunidad Canabica Argentina
    Discover Records Addict

  3. #23
    Fecha de ingreso
    17 abril 2005
    Ubicación
    capital federal
    Edad
    30
    Agradecimientos

    Re: Armin Van Buuren - A State Of Trance Episode 242 (30-03-06)

    uiuiui :( no hai caso..
    no lo puedo bajar ni con proyect..
    [FONT="Georgia"]
    Celita
    [/FONT]

  4. #24
    Fecha de ingreso
    03 abril 2006
    Edad
    42
    Agradecimientos

    Re: Armin Van Buuren - A State Of Trance Episode 242 (30-03-06)

    que bueno

  5. #25
    Fecha de ingreso
    26 agosto 2005
    Ubicación
    San Justo
    Edad
    28
    Agradecimientos

    Re: Armin Van Buuren - A State Of Trance Episode 242 (30-03-06)

    Ya no me anda esa pagina de Proyectbypass alguien por favor lo puede subir a otro servidor? no soy el unico que no le funca alguien que se cope
    [FONT="Arial Black"]Why do we fall sir? So we might learn to pick ourselves up [/FONT]

  6. #26
    Fecha de ingreso
    07 octubre 2005
    Ubicación
    Bahia Blanca
    Edad
    32
    Agradecimientos

    Re: Armin Van Buuren - A State Of Trance Episode 242 (30-03-06)

    para los que no les ande Megaupload aca lo tienen en otras 2 pag...

    http://www.filefactory.com/get/v3/f2...5328b8c8d75f92

    http://oktet.hu/dl.php/szabadG/sets/...006-03-30).mp3 (click derecho y guardar como)

  7. #27
    Fecha de ingreso
    25 octubre 2005
    Ubicación
    Capital Federal
    Edad
    36
    Agradecimientos

    Re: Armin Van Buuren - A State Of Trance Episode 242 (30-03-06)

    PERFORMER "Armin van Buuren"
    TITLE "A State of Trance (242)(30-03-2006)"
    FILE "Armin van Buuren presents - A State of Trance Episode 242.mp3" MP3

    TRACK 01 AUDIO
    PERFORMER "Gabriel and Dresden featuring Scarlett Etienne"
    TITLE "Eleven"
    INDEX 01 00:00:00
    TRACK 02 AUDIO
    PERFORMER "Sasha"
    TITLE "Belfunk (Matthew Dekay Remix)"
    INDEX 01 04:37:33
    TRACK 03 AUDIO
    PERFORMER "David West"
    TITLE "Suffering Island"
    INDEX 01 11:36:10
    TRACK 04 AUDIO
    PERFORMER "Above and Beyond"
    TITLE "World on fire"
    INDEX 01 18:23:69
    TRACK 05 AUDIO
    PERFORMER "Sunlounger"
    TITLE "White sand"
    INDEX 01 23:56:21
    TRACK 06 AUDIO
    PERFORMER "Kenneth Thomas featuring Colleen Riley"
    TITLE "Ghost in The Machine (Elevation Remix)"
    INDEX 01 29:46:71
    TRACK 07 AUDIO
    PERFORMER "Sassot vs. Karen Overton"
    TITLE "Where it all begun vs. Your loving arms (Original Mix vs. Accapella)"
    INDEX 01 36:13:20
    TRACK 08 AUDIO
    PERFORMER "Tom Cloud"
    TITLE "Told you so"
    INDEX 01 43:34:03
    TRACK 09 AUDIO
    PERFORMER "Dan Stone"
    TITLE "Made in Bahrain (Tune of The Week)"
    INDEX 01 51:59:61
    TRACK 10 AUDIO
    PERFORMER "Six Senses presents Xposed"
    TITLE "From The Heart"
    INDEX 01 58:13:31
    TRACK 11 AUDIO
    PERFORMER "Selu Vibra"
    TITLE "Divine (Original Mix)(Future Favorite)"
    INDEX 01 62:43:62
    TRACK 12 AUDIO
    PERFORMER "Re:Locate featuring Menno de Jong"
    TITLE "Spirit"
    INDEX 01 69:56:63
    TRACK 13 AUDIO
    PERFORMER "Kyau vs. Albert"
    TITLE "Kiksu"
    INDEX 01 75:29:60
    TRACK 14 AUDIO
    PERFORMER "Mr. Sam featuring Kirsty Hawkshaw"
    TITLE "Insight (Aira Force Remix)"
    INDEX 01 80:26:31
    TRACK 15 AUDIO
    PERFORMER "Paul Oakenfold"
    TITLE "Amsterdam"
    INDEX 01 85:37:12
    TRACK 16 AUDIO
    PERFORMER "Re:Locate"
    TITLE "Rogue"
    INDEX 01 89:01:76
    TRACK 17 AUDIO
    PERFORMER "Gareth Emery and Jon O'Bir"
    TITLE "No way back"
    INDEX 01 94:24:33
    TRACK 18 AUDIO
    PERFORMER "Adam Nickey"
    TITLE "Perfect destiny"
    INDEX 01 101:25:03
    TRACK 19 AUDIO
    PERFORMER "Mark Otten vs. Carrie Skipper"
    TITLE "So Serene vs. Time goes by (Menno de Jong Mix vs. Accapella)"
    INDEX 01 108:55:33
    TRACK 20 AUDIO
    PERFORMER "EnMass"
    TITLE "C.Q. (Seek You)(Randy Boyer and Kristina Sky Remix)"
    INDEX 01 114:10:67

Página 2 de 2 PrimerPrimer 1 2

Etiquetas para este tema

Información de tema

Usuarios viendo este tema

Actualmente hay 1 usuarios viendo este tema. (0 miembros y 1 visitantes)

Temas similares

  1. Trance Armin van Buuren - A State of Trance Episode 298
    Por nicoaM en el foro SETs
    Respuestas: 31
    Último mensaje: martes 01 mayo de 2007, 03:42
  2. Trance Armin van Buuren - A State of Trance Episode 298
    Por nicoaM en el foro SETs
    Respuestas: 4
    Último mensaje: jueves 26 abril de 2007, 18:29
  3. Respuestas: 4
    Último mensaje: sábado 04 noviembre de 2006, 12:38
  4. Respuestas: 15
    Último mensaje: domingo 14 mayo de 2006, 03:13

Permisos de publicación

  • No puedes crear nuevos temas
  • No puedes responder temas
  • No puedes subir archivos adjuntos
  • No puedes editar tus mensajes
  •