DJ Tiesto - In Search Of Sunrise 5 (Completo) - Página 3

-- Publicidad --

Delta 90.3

Página 3 de 4 PrimerPrimer 1 2 3 4 ÚltimoÚltimo
Resultados 41 al 60 de 67
  1. #41
    Fecha de ingreso
    18 abril 2005
    Ubicación
    La cucha
    Edad
    34
    Agradecimientos

    Re: DJ Tiesto - In Search Of Sunrise 5 (Completo)

    a mi a pesar de las mezclas...tmb me gusta...no es EL disco! pero bueno para escucharlo relajado en casa o para ir a la facu esta bueno.
    Contacto Msn: [email protected]

  2. #42
    Fecha de ingreso
    12 agosto 2005
    Ubicación
    Donde suene bien
    Edad
    37
    Agradecimientos

    Re: DJ Tiesto - In Search Of Sunrise 5 (Completo)

    No es punto final...
    FIJA
    Rolo

  3. #43
    Fecha de ingreso
    17 marzo 2006
    Ubicación
    soy del barrio Palermo electro
    Edad
    43
    Agradecimientos

    Re: DJ Tiesto - In Search Of Sunrise 5 (Completo)

    thanks!!! esto le hace pefecto a la musica papa!!!!..bajandooooooooooooo

  4. #44
    Fecha de ingreso
    10 agosto 2005
    Ubicación
    hurlingham city
    Edad
    34
    Agradecimientos

    Re: DJ Tiesto - In Search Of Sunrise 5 (Completo)

    ya lo tengo el cd, gracias =!!

  5. #45
    Fecha de ingreso
    16 diciembre 2005
    Ubicación
    capital
    Edad
    40
    Agradecimientos

    Re: DJ Tiesto - In Search Of Sunrise 5 (Completo)

    gracias..bajando
    www.special-nights.com.ar

  6. #46
    Fecha de ingreso
    30 marzo 2006
    Ubicación
    FaR fAr AwAy
    Edad
    33
    Agradecimientos

    Re: DJ Tiesto - In Search Of Sunrise 5 (Completo)

    No esta mal... pero me quedo con el 2 y con el 4
    [FONT="Century Gothic"]
    ·*·. m a i n t e n a n t . j e . c o m p r e n d s . t o u t .·*·
    [/FONT]

  7. #47
    Fecha de ingreso
    17 octubre 2005
    Ubicación
    caballito
    Edad
    30
    Agradecimientos

    Re: DJ Tiesto - In Search Of Sunrise 5 (Completo)

    es o no es?.

    o sea no hai muchas vueltas!

    si escucharon el isos 4.

    t das cuenta q este no puede ser el 5. en vez d mejor son peores las mezclas.

    para mi no es. i si es.... buennn ojala q no sea.

  8. #48
    Fecha de ingreso
    15 noviembre 2005
    Ubicación
    belgrano
    Edad
    30
    Agradecimientos

    Re: DJ Tiesto - In Search Of Sunrise 5 (Completo)

    el tracklist personalmente no me gusta mucho...es un trance muy popero, q es lo q esta pegando mas en europa, asi q con eso la pego les agrade o no
    con respecto a las mezclas...desatrozas, no es tiesto

  9. #49
    Fecha de ingreso
    10 agosto 2005
    Ubicación
    hurlingham city
    Edad
    34
    Agradecimientos

    Re: DJ Tiesto - In Search Of Sunrise 5 (Completo)

    ya lo tengo, gracias =...salu2

  10. #50
    Fecha de ingreso
    07 octubre 2005
    Ubicación
    Bahia Blanca
    Edad
    33
    Agradecimientos

    Re: DJ Tiesto - In Search Of Sunrise 5 (Completo)

    q se yo..la verdad q ahora el set esta por todos lados difundido (Emule, bocha de paginas de sets, Soulseek, Ares, etc) y no son todos el mismo archivo sino q son diferentes ripeos..y todos concuerdan con este..nos queda esperar a escuchar el disco original y ver si es este de una vez por todas..en mi opinion es este el original---un abrazo!

  11. #51
    Fecha de ingreso
    17 mayo 2005
    Ubicación
    Devoto
    Agradecimientos

    Re: DJ Tiesto - In Search Of Sunrise 5 (Completo)

    ai no me andan los links :(
    aca las cosas se desvirtuan... y compulsivamente ...

    "¿Qué tal si en vez de hablar tanto sobre la guerra contra las drogas habláramos un poco sobre las drogas que podrían acabar con las guerras?" A. Hofmann

    P.L.U.R. =)

  12. #52
    Fecha de ingreso
    07 octubre 2005
    Ubicación
    Bahia Blanca
    Edad
    33
    Agradecimientos

    Re: DJ Tiesto - In Search Of Sunrise 5 (Completo)

    hace click derecho y "guardar destino como"..ahi tiene que andar..

  13. #53
    Fecha de ingreso
    17 mayo 2005
    Ubicación
    Devoto
    Agradecimientos

    Re: DJ Tiesto - In Search Of Sunrise 5 (Completo)

    aaaa pero desde que tengo Win XP nunca me dejo usar la opcion "guardar destino como.." no se ke hongo.. esta compu de mierda me re lima grgrgrrgrr

    Si alguien encuentra la solución bienvenida será!

    Gracias Jamiro iguall
    aca las cosas se desvirtuan... y compulsivamente ...

    "¿Qué tal si en vez de hablar tanto sobre la guerra contra las drogas habláramos un poco sobre las drogas que podrían acabar con las guerras?" A. Hofmann

    P.L.U.R. =)

  14. #54
    Fecha de ingreso
    20 noviembre 2005
    Edad
    30
    Agradecimientos

    Re: DJ Tiesto - In Search Of Sunrise 5 (Completo)

    Ahora me da cosita bajarlo y que finalmente no sea. Igualmente buenísimo el aporte.

    Saludos.

  15. #55
    Fecha de ingreso
    23 diciembre 2004
    Ubicación
    Capital Federal
    Agradecimientos

    Re: DJ Tiesto - In Search Of Sunrise 5 (Completo)

    tiesto = progre + trance...no era de esperar nada de trance solito ensima que habian dicho q el CD iba a ser bastante parecido al 4 en cuanto a la seleccion de temas...

  16. #56
    Fecha de ingreso
    28 octubre 2005
    Ubicación
    Moscow
    Edad
    49
    Agradecimientos

    Re: DJ Tiesto - In Search Of Sunrise 5 (Completo)

    In Search Of Sunrise 5
    2 CD mixed

    Year: 2006
    Bitrate 320 kbps (VBR)
    Size: 331 mb
    part1 (146.5 mb)http://www.axifile.com/?6333796
    part2 (146.5 mb)http://www.axifile.com/?8950814
    part3 (38 mb)http://www.axifile.com/?6143335
    [FONT="Verdana"]The Freaks Come Out!!![/FONT]

  17. #57
    Fecha de ingreso
    05 junio 2005
    Ubicación
    villa del parque
    Edad
    38
    Agradecimientos

    Re: DJ Tiesto - In Search Of Sunrise 5 (Completo)

    mucha gracia amigo. un saludo.
    [FONT="Comic Sans MS"] El Dj Esta creciendo. [/FONT]

  18. #58
    Fecha de ingreso
    07 noviembre 2005
    Ubicación
    Florida Hights
    Agradecimientos

    Re: DJ Tiesto - In Search Of Sunrise 5 (Completo)

    Alguien tiene los CUE??? los vi un poco tarde...
    Avisen por PM o mejor subanlo aca...

    Thx
    Monkey Says... INNOVATE!

  19. #59
    Fecha de ingreso
    30 abril 2005
    Ubicación
    Haciendo una caminata lunar
    Edad
    35
    Agradecimientos

    Re: DJ Tiesto - In Search Of Sunrise 5 (Completo)

    Cita Iniciado por LyonVision Ver mensaje
    Alguien tiene los CUE??? los vi un poco tarde...
    Avisen por PM o mejor subanlo aca...
    CD 1

    PERFORMER "VA"
    TITLE "Tiesto - In Search Of Sunrise 5 Los Angeles"
    FILE "01-tiesto-in_search_of_sunrise_5_disc_01-ind.mp3" MP3
    TRACK 01 AUDIO
    TITLE "Malibu Beach"
    PERFORMER "Conil"
    INDEX 01 00:00:00
    TRACK 02 AUDIO
    TITLE "Colour My Eyes"
    PERFORMER "Mark Norman Presents Celine"
    INDEX 01 02:24:29
    TRACK 03 AUDIO
    TITLE "Empty Streets"
    PERFORMER "Late Night Alumni"
    INDEX 01 08:48:30
    TRACK 04 AUDIO
    TITLE "Beside Me (Gothek DC Remix)"
    PERFORMER "Electric Prompt"
    INDEX 01 14:28:06
    TRACK 05 AUDIO
    TITLE "Moonlight Party"
    PERFORMER "Fonzerelli"
    INDEX 01 19:43:60
    TRACK 06 AUDIO
    TITLE "Everything Matters (Matthew Dekay Remix)"
    PERFORMER "Leama And Moor"
    INDEX 01 23:10:42
    TRACK 07 AUDIO
    TITLE "Let The Game Begin"
    PERFORMER "Matthew Dekay VS Proluctors"
    INDEX 01 30:04:09
    TRACK 08 AUDIO
    TITLE "Your Loving Arms (Club Mix)"
    PERFORMER "Karen Overton"
    INDEX 01 35:28:35
    TRACK 09 AUDIO
    TITLE "Let Me Be (Original Extended)"
    PERFORMER "Parker And Hanson"
    INDEX 01 42:22:45
    TRACK 10 AUDIO
    TITLE "Novocaine (Mark Otten Remix)"
    PERFORMER "Kalafut And Fygle"
    INDEX 01 45:49:27
    TRACK 11 AUDIO
    TITLE "People Will Go (Steve Forte Rio Remix)"
    PERFORMER "Jes"
    INDEX 01 49:30:68
    TRACK 12 AUDIO
    TITLE "Small Step On The Other Side"
    PERFORMER "Basic Perspective"
    INDEX 01 54:26:22
    TRACK 13 AUDIO
    TITLE "Told You So"
    PERFORMER "Tom Cloud"
    INDEX 01 60:41:05
    TRACK 14 AUDIO
    TITLE "Arise (Exclusive Hammer And Funabashi Remix)"
    PERFORMER "AM"
    INDEX 01 65:51:18
    TRACK 15 AUDIO
    TITLE "Little Bird"
    PERFORMER "Cass"
    INDEX 01 72:07:43


    CD 2

    PERFORMER "VA"
    TITLE "Tiesto - In Search Of Sunrise 5 Los Angeles"
    FILE "02-tiesto-in_search_of_sunrise_5_disc_02-ind.mp3" MP3
    TRACK 01 AUDIO
    TITLE "LAX"
    PERFORMER "Pink Elephant"
    INDEX 01 00:00:00
    TRACK 02 AUDIO
    TITLE "Something Is Wrong"
    PERFORMER "Alex Stealthy"
    INDEX 01 01:50:73
    TRACK 03 AUDIO
    TITLE "Zanzibar"
    PERFORMER "Shah And Laruso Present Global Experience"
    INDEX 01 07:40:03
    TRACK 04 AUDIO
    TITLE "Technophobia"
    PERFORMER "Progression"
    INDEX 01 13:43:51
    TRACK 05 AUDIO
    TITLE "Green Astronauts"
    PERFORMER "A Boy Called Joni"
    INDEX 01 19:18:18
    TRACK 06 AUDIO
    TITLE "These Days (Luke Chables Those Days Remix)"
    PERFORMER "Petter"
    INDEX 01 25:36:24
    TRACK 07 AUDIO
    TITLE "Tales From The South (Jonas Steurs Revision Flow)"
    PERFORMER "Estuera"
    INDEX 01 31:25:37
    TRACK 08 AUDIO
    TITLE "Irony"
    PERFORMER "Ozgur Can"
    INDEX 01 40:09:01
    TRACK 09 AUDIO
    TITLE "Second Turn"
    PERFORMER "Jonas Steur"
    INDEX 01 46:12:58
    TRACK 10 AUDIO
    TITLE "Hi Jack"
    PERFORMER "Smith And Pledger Present Aspekt"
    INDEX 01 53:00:04
    TRACK 11 AUDIO
    TITLE "Genesis (Jimbos Afterburner Mix)"
    PERFORMER "Jaytech"
    INDEX 01 57:50:72
    TRACK 12 AUDIO
    TITLE "Helsinki Scorchin"
    PERFORMER "Super 8 Plus DJ Tab"
    INDEX 01 65:36:12
    TRACK 13 AUDIO
    TITLE "Dont Forget Me (Guy Ehmetores Remix)"
    PERFORMER "Way Out West"
    INDEX 01 72:14:43
    ¨Los video juegos no tienen ninguna influencia sobre los niños. Quiero decir, si el Pac-Man hubiese influenciado a nuestra generación, estaríamos todos corriendo en salas oscuras, masticando píldoras mágicas y escuchando músicas electrónicas repetitivas¨ _Kristian Wilson, Nintendo Inc.. 1989

  20. #60
    Fecha de ingreso
    07 noviembre 2005
    Ubicación
    Florida Hights
    Agradecimientos

    Re: DJ Tiesto - In Search Of Sunrise 5 (Completo)

    Jooooooyaaaa gracias por la rapidez leandrop

    Thx duuuudeeeeeeeeeeeee
    Monkey Says... INNOVATE!

Página 3 de 4 PrimerPrimer 1 2 3 4 ÚltimoÚltimo

Etiquetas para este tema

Información de tema

Usuarios viendo este tema

Actualmente hay 1 usuarios viendo este tema. (0 miembros y 1 visitantes)

Temas similares

  1. Pedido - Musica In Search Of Sunrise 5 - Dj Tiesto
    Por ssacchiii en el foro Archivo de Seccion para Pedidos
    Respuestas: 3
    Último mensaje: jueves 05 marzo de 2009, 19:16
  2. Pedido - Cue Tiesto In search of sunrise 1,2,3,4 y 5
    Por lordyk en el foro Archivo de Seccion para Pedidos
    Respuestas: 4
    Último mensaje: miércoles 11 febrero de 2009, 16:38
  3. Pedido - Cue tiesto - in search of sunrise
    Por liebe en el foro Seccion para Pedidos
    Respuestas: 2
    Último mensaje: domingo 16 septiembre de 2007, 19:53
  4. Tiesto In Search Of Sunrise 4
    Por Jetlag en el foro SETs
    Respuestas: 10
    Último mensaje: martes 03 mayo de 2005, 14:57

Permisos de publicación

  • No puedes crear nuevos temas
  • No puedes responder temas
  • No puedes subir archivos adjuntos
  • No puedes editar tus mensajes
  •