Steve Porter - Live at Space, Miami - 07_09_2005
Resultados 1 al 8 de 8
  1. #1
    Fecha de ingreso
    23 octubre 2005
    Ubicación
    en castelar
    Edad
    31
    Agradecimientos

    Steve Porter - Live at Space, Miami - 07_09_2005


  2. #2
    Fecha de ingreso
    30 enero 2006
    Ubicación
    la rioja
    Edad
    28
    Agradecimientos

    Re: Steve Porter - Live at Space, Miami - 07_09_2005

    ... haber q onda.. ^^

  3. #3
    Fecha de ingreso
    02 junio 2005
    Ubicación
    puerto madero
    Agradecimientos

    Re: Steve Porter - Live at Space, Miami - 07_09_2005

    altamente recomendado

  4. #4
    Fecha de ingreso
    13 julio 2005
    Ubicación
    Rosario
    Edad
    27
    Agradecimientos

    Re: Steve Porter - Live at Space, Miami - 07_09_2005

    tracklistttt?
    una bomba el set chicos!


  5. #5
    Fecha de ingreso
    23 octubre 2005
    Ubicación
    en castelar
    Edad
    31
    Agradecimientos

    Re: Steve Porter - Live at Space, Miami - 07_09_2005

    1. Steve Porter & DJ Hush - "Carismo" - Curvve Recordings
    2. Future Funk - "Wildberry Tracks part 2" (vocal mix) - Ambassade
    3. Allan Blanford - "Groove" (GCII Version) - Essential Elements
    4. Kid Creme - "Doin My Own Thing" - Illegal Beats
    5. First Choice - "The Player" - Fluential
    6. Yuksek - "Should Be Slave" - Hypnotic
    7. Steve Porter - "Junk In The Trunk" - white
    8. Hiroki Esashika - "Kazane" (Sabastien Leger remix) - Intec
    9. Emjae - "Hipster" - white
    10. Message - "Thanks God" - Tribo Recordings
    11. Les Rythmes Digitales - "Jaques Your Body" (Full Intention remix) - Wall of Sound/Data
    12. Porter & Reavey - "Bi-Polar Express" - Reversible Records
    13. Inner City - "Big Fun" (Phil Kieran remix) - PIAS
    14.Tronic Inc. - "Nightlights" - Kitschy Records
    15. Sourmash - "Pilgrimage To Paradise" - Techno Gold
    16. Steve Porter - "Fountainia" - white
    17. Max Graham - "Automatic Weapon" - LMR
    18. Clanger - "Sea Dog" (Way Out West remix) - Platipus
    19. Black Box - "Everybody Everybody - BMG Entertainment

    en un rato hago el cue

  6. #6
    Fecha de ingreso
    23 agosto 2005
    Ubicación
    Congreso
    Edad
    35
    Agradecimientos

  7. #7
    Fecha de ingreso
    23 octubre 2005
    Ubicación
    en castelar
    Edad
    31
    Agradecimientos

    Re: Steve Porter - Live at Space, Miami - 07_09_2005

    PERFORMER "Steve Porter"
    TITLE "Live @ Space, Miami 07/09/2005"
    FILE "Steve Porter - Live at Space, Miami - 07_09_2005.mp3" MP3
    TRACK 01 AUDIO
    TITLE "Carismo"
    PERFORMER "Steve Porter & DJ Hush [Curvve Recordings]"
    INDEX 01 00:00:00

    TRACK 02 AUDIO
    TITLE "Wildberry Tracks part 2 (vocal mix) [Ambassade]"
    PERFORMER "Future Funk"
    INDEX 01 04:54:00

    TRACK 03 AUDIO
    TITLE "Groove (GCII Version) [Essential Elements]"
    PERFORMER "Allan Blanford"
    INDEX 01 07:50:00

    TRACK 04 AUDIO
    TITLE "Doin My Own Thing [Illegal Beats]"
    PERFORMER "Kid Creme"
    INDEX 01 08:49:00

    TRACK 05 AUDIO
    TITLE "The Player [Fluential]"
    PERFORMER "First Choice"
    INDEX 01 11:45:00

    TRACK 06 AUDIO
    TITLE "Should Be Slave [Hypnotic]"
    PERFORMER "Yuksek"
    INDEX 01 13:57:00

    TRACK 07 AUDIO
    TITLE "Junk In The Trunk [White]"
    PERFORMER "Steve Porter"
    INDEX 01 15:54:00

    TRACK 08 AUDIO
    TITLE "Kazane (Sabastien Leger remix) [Intec]"
    PERFORMER "Hiroki Esashika"
    INDEX 01 19:43:00

    TRACK 09 AUDIO
    TITLE "Hipster [White]"
    PERFORMER "Emjae"
    INDEX 01 21:18:00

    TRACK 10 AUDIO
    TITLE "Thanks God [Tribo Recordings]"
    PERFORMER "Message"
    INDEX 01 24:06:00

    TRACK 11 AUDIO
    TITLE "Jaques Your Body (Full Intention remix) [Wall of Sound/Data]"
    PERFORMER "Les Rythmes Digitales"
    INDEX 01 25:42:00

    TRACK 12 AUDIO
    TITLE "Bi-Polar Express [Reversible Records]"
    PERFORMER "Porter & Reavey"
    INDEX 01 30:49:00

    TRACK 13 AUDIO
    TITLE "Big Fun (Phil Kieran remix) [PIAS]"
    PERFORMER "Inner City"
    INDEX 01 34:44:00

    TRACK 14 AUDIO
    TITLE "Nightlights [Kitschy Records]"
    PERFORMER "Tronic Inc."
    INDEX 01 36:47:00

    TRACK 15 AUDIO
    TITLE "Pilgrimage To Paradise [Techno Gold]"
    PERFORMER "Sourmash"
    INDEX 01 40:26:00

    TRACK 16 AUDIO
    TITLE "Fountainia [White]"
    PERFORMER "Steve Porter"
    INDEX 01 44:50:00

    TRACK 17 AUDIO
    TITLE "Automatic Weapon [LMR]"
    PERFORMER "Max Graham"
    INDEX 01 49:07:00

    TRACK 18 AUDIO
    TITLE "Sea Dog (Way Out West remix) [Platipus]"
    PERFORMER "Clanger"
    INDEX 01 51:48:00

    TRACK 19 AUDIO
    TITLE "Everybody Everybody [BMG Entertainment]"
    PERFORMER "Black Box"
    INDEX 01 55:59:00
    Tronic Inc. - Nightlights!!!! temazooooooooooooooooo

  8. #8
    Fecha de ingreso
    03 marzo 2006
    Ubicación
    WasteLand
    Agradecimientos

    Re: Steve Porter - Live at Space, Miami - 07_09_2005

    grax bajandoooooooooo
    thanks
    Ale Del Valle Dj/Producer


Etiquetas para este tema

Información de tema

Usuarios viendo este tema

Actualmente hay 1 usuarios viendo este tema. (0 miembros y 1 visitantes)

Temas similares

  1. Respuestas: 1
    Último mensaje: viernes 23 mayo de 2008, 07:43
  2. Pedido - Tracklist Steve Lawler @ Club Space MIAMI, (WMC) 08-2004
    Por wonder woman en el foro Seccion para Pedidos
    Respuestas: 3
    Último mensaje: jueves 24 mayo de 2007, 22:06
  3. Respuestas: 0
    Último mensaje: sábado 08 abril de 2006, 16:31
  4. Respuestas: 1
    Último mensaje: miércoles 22 marzo de 2006, 22:40

Permisos de publicación

  • No puedes crear nuevos temas
  • No puedes responder temas
  • No puedes subir archivos adjuntos
  • No puedes editar tus mensajes
  •