M.I.K.E. @ Trance Energy 2006

-- Publicidad --

Delta 90.3

Resultados 1 al 5 de 5
  1. #1
    Fecha de ingreso
    03 noviembre 2005
    Ubicación
    Buenos Aires
    Agradecimientos

    M.I.K.E. @ Trance Energy 2006

    1 Kyle Emmerson - Breakout
    2 Steve Angello - Euro
    3 Rob Mooney - Feelin Electro
    4 Filterheadz - Endless Summer
    5 Kobbe vs Balthazar and Jackrock - Moonshine
    6 Gray - Awakenig
    7 Love Machine - Poison
    8 Perry O Neil - Numb
    9 M.I.K.E. - Voices From The Inside
    10 Carl Cox - Just Kick

    http://rapidshare.de/files/15683212/...y_2006-cin.mp3

  2. #2
    Fecha de ingreso
    13 julio 2005
    Ubicación
    Rosario
    Edad
    27
    Agradecimientos

    Re: M.I.K.E. @ Trance Energy 2006

    lindo tracklist,linda fiesta!


  3. #3
    Fecha de ingreso
    12 febrero 2006
    Ubicación
    cordoba
    Agradecimientos

    Re: M.I.K.E. @ Trance Energy 2006

    bien M.I.K.E....gracias.

  4. #4
    Fecha de ingreso
    22 agosto 2005
    Ubicación
    Congreso
    Edad
    36
    Agradecimientos

    Re: M.I.K.E. @ Trance Energy 2006

    9 M.I.K.E. - Voices From The Inside
    10 Carl Cox - Just Kick
    escuchenlo que c zarpan mal!

  5. #5
    Fecha de ingreso
    17 noviembre 2004
    Ubicación
    Santiago
    Edad
    35
    Agradecimientos

    Re: M.I.K.E. @ Trance Energy 2006

    Código:
    PERFORMER "M.I.K.E."
    TITLE "Trance Energy 2006"
    FILE "M.I.K.E. - Trance Energy 2006.mp3" MP3
    TRACK 01 AUDIO
    PERFORMER "Kyle Emmerson"
    TITLE "Breakout"
    INDEX 01 00:00:00
    TRACK 02 AUDIO
    PERFORMER "Steve Angello"
    TITLE "Euro"
    INDEX 01 05:52:20
    TRACK 03 AUDIO
    PERFORMER "Rob Mooney"
    TITLE "Feelin Electro"
    INDEX 01 11:03:25
    TRACK 04 AUDIO
    PERFORMER "Filterheadz"
    TITLE "Endless Summer"
    INDEX 01 17:06:05
    TRACK 05 AUDIO
    PERFORMER "Kobbe vs. Balthazar & Jackrock"
    TITLE "Moonshine"
    INDEX 01 22:45:45
    TRACK 06 AUDIO
    PERFORMER "Gray"
    TITLE "Awakenig"
    INDEX 01 28:24:40
    TRACK 07 AUDIO
    PERFORMER "Love Machine"
    TITLE "Poison"
    INDEX 01 33:58:65
    TRACK 08 AUDIO
    PERFORMER "Perry O'Neil"
    TITLE "Numb"
    INDEX 01 39:59:00
    TRACK 09 AUDIO
    PERFORMER "M.I.K.E"
    TITLE "Voices From The Inside"
    INDEX 01 46:48:20
    TRACK 10 AUDIO
    PERFORMER "DJ Remy"
    TITLE "Nasty Ho"
    INDEX 01 53:16:40
    TRACK 10 AUDIO
    PERFORMER "Renato Cohen vs. Tim Deluxe"
    TITLE "Just Kick (Carl Cox Remix)"
    INDEX 01 59:09:00
    EP/IC
    BLINK! BLINK!

Etiquetas para este tema

Información de tema

Usuarios viendo este tema

Actualmente hay 1 usuarios viendo este tema. (0 miembros y 1 visitantes)

Temas similares

  1. Trance Energy 2006 - Above & Beyond
    Por luisonte en el foro Videos de Fiestas en Vivo
    Respuestas: 1
    Último mensaje: lunes 23 julio de 2007, 15:44
  2. Trance Energy 2006
    Por adriano_vela en el foro Videos de Fiestas en Vivo
    Respuestas: 0
    Último mensaje: sábado 14 abril de 2007, 17:00
  3. Respuestas: 1
    Último mensaje: jueves 11 mayo de 2006, 02:51
  4. VA - Trance Energy 2006
    Por chApu en el foro SETs
    Respuestas: 1
    Último mensaje: viernes 03 marzo de 2006, 11:27
  5. Respuestas: 0
    Último mensaje: jueves 23 febrero de 2006, 16:38

Permisos de publicación

  • No puedes crear nuevos temas
  • No puedes responder temas
  • No puedes subir archivos adjuntos
  • No puedes editar tus mensajes
  •