Lo estoy bajando, se los dejo con el tracklist y el cue..un abrazo!

01. Midway - Cobra (Outback Remix) [Black Hole Recordings]
02. Sandra Flynn - Rockin [Alphabet City]
03. Marco V - False light (Ton T.B. Remix) [InCharge]
04. Substate - Horizon [Spinnin Records]
05. Second Sun - Playground [Vandit]
06. Ronski Speed Feat. Stoneface & Terminal - Incognition [Euphonic Records]
07. Marcel Woods - Advanced (Woods Re-Visited Mix) [Be Yourself Music]
08. Lost Tribe - Gamemaster (Mark Sherry 2006 Remix) [Darey Products]
09. Tiesto Pres. Allure - The Loves We Lost [Black Hole Recordings]
10. Randy Katana - Play It Louder (Dave 202 Mix) [Spinnin Records]
11. Johan Gielen - Magnitude [Black Hole Recordings]

archivo .CUE

PERFORMER "Johan Gielen"
TITLE "Live @ Trance Energy 2006"
FILE "Johan Gielen - Live @ Trance Energy 2006.mp3" MP3
TRACK 01 AUDIO
TITLE "Midway - Cobra (Outback Remix)"
INDEX 01 00:00:00
TRACK 02 AUDIO
TITLE "Sandra Flynn - Rockin"
INDEX 01 06:20:00
TRACK 03 AUDIO
TITLE "Marco V - False light (Ton T.B. Remix)"
INDEX 01 12:15:00
TRACK 04 AUDIO
TITLE "Substate - Horizon (Mac Zimms Remix)"
INDEX 01 18:18:00
TRACK 05 AUDIO
TITLE "Second Sun - Playground (Nu NRG Remix) "
INDEX 01 23:27:00
TRACK 06 AUDIO
TITLE "Ronski Speed Vs. Stoneface & Terminal - Incognition (Club Mix) "
INDEX 01 29:09:00
TRACK 07 AUDIO
TITLE "Marcel Woods - Advanced (Woods Re-Visited Mix)"
INDEX 01 35:03:00
TRACK 08 AUDIO
TITLE "Lost Tribe - Gamemaster (Mark Sherry 2006 Remix)"
INDEX 01 41:42:00
TRACK 09 AUDIO
TITLE "Tiësto Pres. Allure - The Loves We Lost (Original Mix)"
INDEX 01 48:26:00
TRACK 10 AUDIO
TITLE "Randy Katana - Play It Louder (Dave 202 Mix)"
INDEX 01 55:06:00
TRACK 11 AUDIO
TITLE "Johan Gielen - Magnitude "
INDEX 01 60:03:00


http://rapidshare.de/files/13172508/...j_set.mp3.html