Sander Kleinenberg Live @ Korona Club, Kecel 11.12.2005

-- Publicidad --

Aftercluv 3

Resultados 1 al 8 de 8
  1. #1
    Fecha de ingreso
    27 enero 2005
    Ubicación
    Ciudad Autónoma de Buenos Aires
    Edad
    28
    Agradecimientos

    Sander Kleinenberg Live @ Korona Club, Kecel 11.12.2005

    01 Green Velvet - Preacher Man
    02 ID
    03 ID (Soundbar #4)
    04 R�yksopp - What Else Is There? (Trentem�ller remix)
    05 Tom Neville - Never Lose Your Grip
    06 ID (vocs: Electro Phenomenon?)
    07 ID
    08 ID (Avalon @35min or Soundbar @ 42 minutes)
    09 ID ("I feel the beat, calling", "dissolving")
    10 Emilia Majello - Back To Me (The Scumfrog Dub)
    11 DJ Meri - Not A Dream (Paul Harris Dub)
    12 Low End Specialist - It Comes From Inside
    13 ID
    14 ID (Soundbar #12, "I can't get enough")
    15 Speedcats - Speedcats (Roel H Remix) - Green Velvet - Flash (Acappella)
    16 Lower East Side - Swordfight
    17 Mylo feat Freedom Five - Muscle Car (Sander Kleinenberg Remix)
    18 Robbie Rivera - Float Away (ID Mix)
    19 Angel Moon - Irregular Peace
    20 Emilia Majello - Back To Me (The Scumfrog Dub)
    21 James Holden - A Break In The Clouds (Main Mix)
    22 PJ Harvey - The Slow Drug (Subtitle Remix)
    23 ID
    24 ID
    25 ID ("Won't let you win/in?" "i am only human" "here I am, come and get it")
    26 Deep Dish feat Morel - Sacramento (Audiofly Mix)
    27 Lemon 8 - Model 8

    http://www.spectivedance.com/davet/l....11.2005)-.mp3

  2. #2
    Fecha de ingreso
    07 junio 2005
    Ubicación
    Córdoba Capital
    Edad
    31
    Agradecimientos

    Re: Sander Kleinenberg Live @ Korona Club, Kecel 11.12.2005

    Gracias Chapu

  3. #3
    Fecha de ingreso
    12 febrero 2006
    Ubicación
    cordoba
    Agradecimientos

    Re: Sander Kleinenberg Live @ Korona Club, Kecel 11.12.2005

    Sander es un kapo!!!!!!!!!
    komo puedo hacer para grabarlo?
    gracias CHA!!

  4. #4
    Fecha de ingreso
    25 octubre 2005
    Ubicación
    Capital Federal
    Edad
    36
    Agradecimientos

    Re: Sander Kleinenberg Live @ Korona Club, Kecel 11.12.2005

    Este es un exelente set!!!

    Dejo el cue:



    TITLE "[email protected]_Club_Kecel_Hungary_12_11_2005"
    PERFORMER "SANDER KLEINENBERG"
    FILE "[email protected]_Club_Kecel_Hungary_12_11_2005.mp3" mp3
    TRACK 01 AUDIO
    TITLE "Preacher Man"
    PERFORMER "Green Velvet"
    INDEX 01 00:00:00
    TRACK 02 AUDIO
    TITLE "No More Conversations (Soul Mekanik Remix)"
    PERFORMER "Freeform Five"
    INDEX 01 07:54:00
    TRACK 03 AUDIO
    TITLE "(ID 4 from Toronto Soundbar)"
    PERFORMER "ID"
    INDEX 01 14:08:00
    TRACK 04 AUDIO
    TITLE "What Else is There? (Trentemoller Remix)"
    PERFORMER "Royksopp"
    INDEX 01 18:02:00
    TRACK 05 AUDIO
    TITLE "Never Lose Your Grip"
    PERFORMER "Tom Neville"
    INDEX 01 24:16:00
    TRACK 06 AUDIO
    TITLE "ID"
    PERFORMER "(vocs: Electro Phenomenon?)
    INDEX 01 30:00:00
    TRACK 07 AUDIO
    TITLE "ID"
    PERFORMER "ID"
    INDEX 01 34:29:00
    TRACK 08 AUDIO
    TITLE "(Avalon @35min or Soundbar @ 42 minutes)"
    PERFORMER "ID"
    INDEX 01 41:13:00
    TRACK 09 AUDIO
    TITLE "ID"
    PERFORMER "(I feel the beat, calling", "dissolving)"
    INDEX 01 46:30:00
    TRACK 10 AUDIO
    TITLE "Back To Me (The Scumfrog Dub)"
    PERFORMER "Emilia Majello"
    INDEX 01 51:08:00
    TRACK 11 AUDIO
    TITLE "Not A Dream (Paul Harris Dub)"
    PERFORMER "DJ Meri"
    INDEX 01 57:37:00
    TRACK 12 AUDIO
    TITLE "It Comes From Inside"
    PERFORMER "Low End Specialist"
    INDEX 01 63:36:00
    TRACK 13 AUDIO
    TITLE "ID"
    PERFORMER "ID"
    INDEX 01 71:00:00:00
    TRACK 14 AUDIO
    TITLE "(Soundbar #12, "I can't get enough)"
    PERFORMER "ID"
    INDEX 01 77:10:00
    TRACK 15 AUDIO
    TITLE "Green Velvet - Flash (accapella)"
    PERFORMER "Speedcats- Speedcats (Roel H remix)"
    INDEX 01 83:20:00
    TRACK 16 AUDIO
    TITLE "Lower East Side"
    PERFORMER "Swordfight"
    INDEX 01 86:42:00
    TRACK 17 AUDIO
    TITLE "Muscle Car (Sander Kleinenberg Remix)"
    PERFORMER "Mylo feat Freedom Five"
    INDEX 01 93:40:00
    TRACK 18 AUDIO
    TITLE "Float away (? Remix)"
    PERFORMER "Robbie Rivera"
    INDEX 01 99:40:00
    TRACK 19 AUDIO
    TITLE "Irregular Peace"
    PERFORMER "Angel Moon"
    INDEX 01 106:51:00
    TRACK 20 AUDIO
    TITLE "Back To Me (The Scumfrog Dub)"
    PERFORMER "Emilia Majello"
    INDEX 01 113:48:00
    TRACK 21 AUDIO
    TITLE "A Break in the Clouds (Main Mix)"
    PERFORMER "James Holden"
    INDEX 01 121:08:00
    TRACK 22 AUDIO
    TITLE "The Slow Drug (Subtitle Remix)"
    PERFORMER "PJ Harvey"
    INDEX 01 126:13:00
    TRACK 23 AUDIO
    TITLE "ID"
    PERFORMER "ID"
    INDEX 01 133:47:00
    TRACK 24 AUDIO
    TITLE "ID"
    PERFORMER "ID"
    INDEX 01 142:27:00
    TRACK 25 AUDIO
    TITLE "ID"
    PERFORMER ""wont let you win/in?" "i am only human" "here I am, come and get it""
    INDEX 01 148:47:00
    TRACK 26 AUDIO
    TITLE "Sacramento (Audiofly Mix)"
    PERFORMER "Deep Dish ft. Morel"
    INDEX 01 154:27:00
    TRACK 27 AUDIO
    TITLE "cool lazer/sythn action?? Lemon 8/Model 8?? "
    PERFORMER "ID??"
    INDEX 01 160:59:00

  5. #5
    Fecha de ingreso
    04 marzo 2006
    Agradecimientos

    Re: Sander Kleinenberg Live @ Korona Club, Kecel 11.12.2005

    21 James Holden - A Break In The Clouds (Main Mix)



    temazooooooooooooooooooooooooooooooooooooooo


    bajando!!!!!
    guuuuiiiiiddddoooo !

  6. #6
    Fecha de ingreso
    04 abril 2005
    Ubicación
    Quilmes
    Edad
    32
    Agradecimientos

    Re: Sander Kleinenberg Live @ Korona Club, Kecel 11.12.2005

    Chapu la reputamdreeeee,porque nunca me andan los link que vos dejas......
    Jaja es fija,lo posteas vos y a mi no me baja.

  7. #7
    Fecha de ingreso
    25 octubre 2005
    Ubicación
    Capital Federal
    Edad
    36
    Agradecimientos

    Re: Sander Kleinenberg Live @ Korona Club, Kecel 11.12.2005

    Lo que pasa que Chapu lo posteó el 25 de febrero, hace bastante...Igual el set lo conseguís con emule de toque.
    Saludos

  8. #8
    Fecha de ingreso
    03 marzo 2006
    Ubicación
    WasteLand
    Agradecimientos

    Re: Sander Kleinenberg Live @ Korona Club, Kecel 11.12.2005

    ke pasa man tu pagina pirata no andaaaaaaaa

    arreglalooooooo ke sander es una bestiaaaaaaaaaaaaa

    todavia tengo el dvd ke me grabaste del Dance Valley 2005 ke se zarpaa

    sanderrrrrrrrrrrr

    abrazo mennn
    Ale Del Valle Dj/Producer


Etiquetas para este tema

Información de tema

Usuarios viendo este tema

Actualmente hay 1 usuarios viendo este tema. (0 miembros y 1 visitantes)

Temas similares

  1. Filmado en Fiesta John Digweed Live at Korona Kecel 13-06-2008
    Por luisonte en el foro Videos de Fiestas en Vivo
    Respuestas: 2
    Último mensaje: sábado 05 julio de 2008, 14:19
  2. Respuestas: 0
    Último mensaje: miércoles 07 mayo de 2008, 16:04
  3. Respuestas: 0
    Último mensaje: jueves 13 marzo de 2008, 13:45
  4. Respuestas: 0
    Último mensaje: lunes 14 enero de 2008, 11:46
  5. Anthony Pappa @ Korona Club Kecel Hungary (21.10.2005) 188 MB!!!
    Por jula en el foro Videos de Fiestas en Vivo
    Respuestas: 3
    Último mensaje: jueves 16 febrero de 2006, 00:29

Permisos de publicación

  • No puedes crear nuevos temas
  • No puedes responder temas
  • No puedes subir archivos adjuntos
  • No puedes editar tus mensajes
  •