Sasha's Ableton Live Set 2005-12-31, RE-POST:::Essential Mix of the Year
Resultados 1 al 5 de 5
  1. #1
    Fecha de ingreso
    19 noviembre 2005
    Ubicación
    en un vynilo
    Edad
    34
    Agradecimientos

    Sasha's Ableton Live Set 2005-12-31, RE-POST:::Essential Mix of the Year

    Sasha's Ableton Live Set 2005-12-31, RE-POST:::Essential Mix of the Year



    Sasha's Ableton Live set
    ::: live from BBC Maida Vale
    ::: 22/05/2005


    Sasha Intro
    Detroit Escalator Company - 'Abstract Forward Motion' (Peacefrog)
    Ian Brown - 'Kiss Ya Lips' (Polydor)
    No Doubt - 'Hella Good' [Remix] (Interscope)
    Timo Maas - 'Passive Massive' (Warners)
    Glitch - 'Tip Toe' [Jonathan Hart Bootleg] (Nano)
    Unknown - 'Unknown' (White)
    Michael Mayer - 'Lovefood'(Kompakt Pop)
    Ricardo Villalobos - 'Easy Lee' [Smith n Hack Remix] (Playhouse (Germany)
    Jori Hulkkonen - Science [Aril Brikha Remix] / Sasha - 'Wavy Gravy' (F Comm)
    Juliet - 'Ride the Pain' [Thin White Duke Mix] (Virgin)
    Extrawelt - 'Zu Fuss' (Border Community)
    Unknown - 'Unknown' (White)
    Sia - 'Breathe Me' [Ulrich Schnauss Remix] (Go Beat)
    Egg - 'Wall' [Egg Re-Edit] (White)
    Jori Hulkkonnen feat. Jerry Valuri - 'Lo-Fiction' [Dub Mix] (F Comm)
    Gorillaz - Feel Good Inc [Acapella] (Parlophone) / Sasha - 'Wavy Gravy' (BMG)
    Unknown - 'Unknown' (White)
    M83 - 'Unknown' (White)
    Unknown - 'Unknown' (White) / Thomas Newman - 'Drive Away' (White)
    Moby - 'Raining Again' [Ewan Pearson Dub] (Mute)
    Sasha Outro


    PERFORMER "Sasha"
    TITLE "Essential Mix - Ableton Live set from Maida Vale 22-05-2005"
    FILE "Sasha - Essential Mix - Ableton Live set from Maida Vale 22-05-2005.mp3" MP3
    TRACK 01 AUDIO
    TITLE "Intro"
    PERFORMER "Sasha"
    INDEX 01 00:00:00
    TRACK 02 AUDIO
    TITLE "Abstract Forward Motion"
    PERFORMER "Detroit Escalator Company"
    INDEX 01 03:21:00
    TRACK 03 AUDIO
    TITLE "Kiss Ya Lips (No I.D.)"
    PERFORMER "Ian Brown"
    INDEX 01 08:47:00
    TRACK 04 AUDIO
    TITLE "Hella Good (Sharam Jay mix)"
    PERFORMER "No Doubt"
    INDEX 01 13:44:00
    TRACK 05 AUDIO
    TITLE "Passive Massive (Edit)"
    PERFORMER "Timo Maas"
    INDEX 01 20:00:00
    TRACK 06 AUDIO
    TITLE "Tip Toe (Jonathan Hart Bootleg)"
    PERFORMER "Glitch"
    INDEX 01 24:15:00
    TRACK 07 AUDIO
    TITLE "ID"
    PERFORMER "ID"
    INDEX 01 29:38:00
    TRACK 08 AUDIO
    TITLE "Lovefood"
    PERFORMER "Michael Mayer"
    INDEX 01 37:47:00
    TRACK 09 AUDIO
    TITLE "Easy Lee (Smith n Hack Remix)"
    PERFORMER "Ricardo Villalobos"
    INDEX 01 41:04:00
    TRACK 10 AUDIO
    TITLE "Science (Aril Brikha Remix) w/ Wavy Gravy (Edit)"
    PERFORMER "Jori Hulkkonen w/ Sasha"
    INDEX 01 46:10:00
    TRACK 11 AUDIO
    TITLE "Ride the Pain (Thin White Duke Mix)"
    PERFORMER "Juliet"
    INDEX 01 57:52:00
    TRACK 12 AUDIO
    TITLE "Zu Fuss"
    PERFORMER "Extrawelt"
    INDEX 01 64:03:00
    TRACK 13 AUDIO
    TITLE "ID"
    PERFORMER "ID"
    INDEX 01 70:13:00
    TRACK 14 AUDIO
    TITLE "Breathe Me (Ulrich Schnauss Remix)"
    PERFORMER "Sia"
    INDEX 01 75:44:00
    TRACK 15 AUDIO
    TITLE "The Wall (Egg Re-Edit)"
    PERFORMER "Egg"
    INDEX 01 82:10:00
    TRACK 16 AUDIO
    TITLE "Lo-Fiction (Dub Mix/Edit)"
    PERFORMER "Jori Hulkkonnen ft. Jerry Valuri"
    INDEX 01 88:30:00
    TRACK 17 AUDIO
    TITLE "Feel Good Inc (Acapella) w/ Wavy Gravy (U&K Remix) (Edit)"
    PERFORMER "Gorillaz w/ Sasha"
    INDEX 01 95:11:00
    TRACK 18 AUDIO
    TITLE "ID"
    PERFORMER "ID"
    INDEX 01 101:20:00
    TRACK 19 AUDIO
    TITLE "Don't Save Us From The Flames (Sasha Breaks Re-Edit)"
    PERFORMER "M83"
    INDEX 01 102:33:00
    TRACK 20 AUDIO
    TITLE "ID w/ Drive Away"
    PERFORMER "ID w/ Thomas Newman"
    INDEX 01 109:22:00
    TRACK 21 AUDIO
    TITLE "Raining again (Ewan Pearson dub)"
    PERFORMER "Moby"
    INDEX 01 116:25:00
    TRACK 22 AUDIO
    TITLE "Outro"
    PERFORMER "Sasha"
    INDEX 01 117:50:00

    http://www.sendspace.com/file/zbxble

    enjoyyyyyyyyyyy
    tracklist y cue
    salu2
    Activa vs. Chris & Matt Kidd “U.R.” (Stoneface & Terminal mix) (Discover)
    Jochen Miller - Face Value (Extended)[High Contrast]
    Eddie Sender - Sandwalker (Original Mix)[Monster Digital]
    Bryan Kearney - More To Life (Dave Schiemann Remix)[Discover White Label]
    Comunidad Canabica Argentina
    Discover Records Addict

  2. #2
    Fecha de ingreso
    13 julio 2005
    Ubicación
    Rosario
    Edad
    27
    Agradecimientos

    Re: Sasha's Ableton Live Set 2005-12-31, RE-POST:::Essential Mix of the Year

    A verlo a Sashin abletoniando! :p


  3. #3
    Fecha de ingreso
    09 junio 2005
    Ubicación
    cabachito
    Agradecimientos

    Re: Sasha's Ableton Live Set 2005-12-31, RE-POST:::Essential Mix of the Year

    The daily bandwidth limit assigned to you country has been reached. Please try again tomorrow.

  4. #4
    Fecha de ingreso
    05 octubre 2005
    Ubicación
    bs as
    Edad
    29
    Agradecimientos

    Re: Sasha's Ableton Live Set 2005-12-31, RE-POST:::Essential Mix of the Year

    Cita Iniciado por ENZO! Ver mensaje
    The daily bandwidth limit assigned to you country has been reached. Please try again tomorrow.
    Para los q tengan problemas con las Vacantes para bajar,,,,,bajense el programa Universal Share Downloades v1.3.3....q pesa nada mas q 2MB y no van a tener nunk mas un problema. Free Music

  5. #5
    Fecha de ingreso
    09 junio 2005
    Ubicación
    cabachito
    Agradecimientos

    Re: Sasha's Ableton Live Set 2005-12-31, RE-POST:::Essential Mix of the Year

    Cita Iniciado por AVB Ver mensaje
    Para los q tengan problemas con las Vacantes para bajar,,,,,bajense el programa Universal Share Downloades v1.3.3....q pesa nada mas q 2MB y no van a tener nunk mas un problema. Free Music
    yo lo usaba solo para megaupload ,, ni sabia que funcionaba para este tambien , gracias !!!

Etiquetas para este tema

Información de tema

Usuarios viendo este tema

Actualmente hay 1 usuarios viendo este tema. (0 miembros y 1 visitantes)

Temas similares

  1. Respuestas: 8
    Último mensaje: jueves 12 noviembre de 2009, 13:57
  2. Pedido - Musica Sasha Live From Maida Vale Studios (Ableton Live Special) 22.5.2005
    Por Hoff en el foro Seccion para Pedidos
    Respuestas: 1
    Último mensaje: martes 11 agosto de 2009, 12:15
  3. Deep house Essential Mix Of The Year Show - Essential Mix (2007-12-31)
    Por luisonte en el foro Radioshows
    Respuestas: 1
    Último mensaje: miércoles 02 enero de 2008, 03:22
  4. Respuestas: 1
    Último mensaje: viernes 11 noviembre de 2005, 15:00
  5. Sasha's new Ableton...
    Por Mario Bros. en el foro Entrevistas sobre DJs & Bandas
    Respuestas: 8
    Último mensaje: jueves 24 febrero de 2005, 17:24

Permisos de publicación

  • No puedes crear nuevos temas
  • No puedes responder temas
  • No puedes subir archivos adjuntos
  • No puedes editar tus mensajes
  •