Renaissance Presents 3D: Satoshi Tomiie
Resultados 1 al 20 de 20
  1. #1
    Fecha de ingreso
    12 julio 2005
    Ubicación
    rotterdam
    Edad
    43
    Agradecimientos

    Renaissance Presents 3D: Satoshi Tomiie

    Disc One: Club
    01. Spirit Catcher – Polysquasher
    02. Dan Berkson – People
    03. Only Freak - Viper Vapour
    04. Stereo Type – Somewhere
    05. Jim Rivers – Future
    06. Audiofly X - Stolen Goods
    07. Martin Eyerer - Wicked Line (Original Mix)
    08. Electrochemie - Big One
    09. Uppfade - Panga (Gui Boratto’s ‘Ace of Spades’ Remix)
    10. Cass & Mangan - I Love Your Shoes
    11. Guy Gerber - X Factor
    12. Jim Rivers - Restore

    Disc Two: Studio
    01. Loop 7 - The Theme (Reprise)
    02. Satoshi Tomiie - Tears (3D Slightly 303 Version)
    03. Chab - Lover (Satoshi Tomiie 3D Remix)
    04. Cass - Mind Rewind (Satoshi Tomiie Mind Blister Remix)
    05. Graffik – A Lesser Man? (Satoshi Tomiie Mix)
    06. Slok - Lonely Child (Satoshi Tomiie 3D Remix)
    07. Kosheen - Hungry (Satoshi Tomiie Vocal Remix - 3D Edit)
    08. Photek - Mine To Give (Satoshi Tomiie 3D Private Path)
    09. Satoshi Tomiie featuring Kelli Ali - Love In Traffic (3D Private Path)
    10. The Future Sound of London - Papua New Guinea (Main Path)
    11. Hybrid - Higher Than A Skyscraper (Satoshi Tomiie 3D Dub)

    Disc Three: Home
    01. Dexter Wansel - Life On Mars
    02. Sneaker Pimps - 6 Underground
    03. Miles Davis & Gil Evans - Solea
    04. M.F.S.B. – Mysteries Of The World
    05. Bou-Kahn - Magic
    06. Aphrodisiac - Song of the Siren
    07. Jaco Pastorius - Portrait of Tracy
    08. Weather Report - Palladium
    09. Roy Ayers - Running Away
    10. James Brown - Give It Up Or Turn It A Loose
    11. Lonnie Liston Smith - Summer Days
    12. Azymuth - Fly Over The Horizon (Vôo Sobre O Horizonte



    cd 1 http://www.megaupload.com/?d=RCU5Q7S4
    cd 2 http://www.megaupload.com/?d=BWRISL74
    cd 3 http://www.megaupload.com/?d=ONS3P5MY





    great underground sound yeahhhhhhhhhh

  2. #2
    Fecha de ingreso
    18 septiembre 2004
    Ubicación
    shanghai
    Edad
    31
    Agradecimientos

    Re: Renaissance Presents 3D: Satoshi Tomiie

    wow aver.. yo lo fui a ver ayer a un boliche.. y no habia nadie.. mmm muy agreta el japo.. :S

    .

  3. #3
    Fecha de ingreso
    19 diciembre 2005
    Ubicación
    CABA
    Agradecimientos

    Re: Renaissance Presents 3D: Satoshi Tomiie

    Esperando mientras baja.. .. .. .. seguro que lo disfrutaré

    ...como dice mi pibe....¡¡¡ lucinante !!!
    muchas gracias, ya voy kemando el 1º...
    Última edición por Guiy03; sábado 11 febrero de 2006 a las 13:20 Razón: Sistema Automatico de Union de Mensajes Duplicados

  4. #4
    Fecha de ingreso
    23 noviembre 2005
    Ubicación
    Asu
    Agradecimientos

    Re: Renaissance Presents 3D: Satoshi Tomiie

    que tal esta el material¿?

  5. #5
    Fecha de ingreso
    01 octubre 2005
    Ubicación
    Rg
    Agradecimientos

    Re: Renaissance Presents 3D: Satoshi Tomiie

    bajando... despues comento,, grax!!! =D

  6. #6
    Fecha de ingreso
    11 diciembre 2005
    Ubicación
    capital
    Edad
    31
    Agradecimientos

    Re: Renaissance Presents 3D: Satoshi Tomiie

    simplemente Satoshi Tomiie.........

  7. #7
    Fecha de ingreso
    27 enero 2006
    Ubicación
    Brighton
    Edad
    31
    Agradecimientos

    Re: Renaissance Presents 3D: Satoshi Tomiie

    holy shit!!
    gracias che

  8. #8
    Fecha de ingreso
    28 agosto 2005
    Ubicación
    adrogue
    Edad
    29
    Agradecimientos

    Re: Renaissance Presents 3D: Satoshi Tomiie

    yo lo staba bajando del slsk, todavia esta incomplete. los primeros 2 tracks del cd1 son muy lindos, y los ke escuche del cd2 tambien, muy buenos.
    - techminimaldubclick .

  9. #9
    Fecha de ingreso
    02 julio 2005
    Ubicación
    Fox River
    Edad
    37
    Agradecimientos

    Re: Renaissance Presents 3D: Satoshi Tomiie

    esta trackeado?
    Lost in a Melody

    John Digweed @ Moonpark XII



  10. #10
    Fecha de ingreso
    11 abril 2005
    Ubicación
    floress
    Edad
    27
    Agradecimientos

    Re: Renaissance Presents 3D: Satoshi Tomiie

    wenisimo, graciass

  11. #11
    Fecha de ingreso
    03 octubre 2005
    Ubicación
    palermo
    Agradecimientos

    Re: Renaissance Presents 3D: Satoshi Tomiie

    wow, gracias

  12. #12
    Fecha de ingreso
    07 octubre 2005
    Ubicación
    Capital Federal
    Agradecimientos

    Re: Renaissance Presents 3D: Satoshi Tomiie

    se agradece

    salu2

  13. #13
    Fecha de ingreso
    30 abril 2005
    Ubicación
    Haciendo una caminata lunar
    Edad
    35
    Agradecimientos

    Re: Renaissance Presents 3D: Satoshi Tomiie

    d q año es ??
    ¨Los video juegos no tienen ninguna influencia sobre los niños. Quiero decir, si el Pac-Man hubiese influenciado a nuestra generación, estaríamos todos corriendo en salas oscuras, masticando píldoras mágicas y escuchando músicas electrónicas repetitivas¨ _Kristian Wilson, Nintendo Inc.. 1989

  14. #14
    Fecha de ingreso
    07 junio 2005
    Ubicación
    Córdoba Capital
    Edad
    31
    Agradecimientos

    Re: Renaissance Presents 3D: Satoshi Tomiie

    gracias cadex despues opino

  15. #15
    Fecha de ingreso
    01 octubre 2005
    Ubicación
    Rg
    Agradecimientos

    Re: Renaissance Presents 3D: Satoshi Tomiie

    Cita Iniciado por leandrop Ver mensaje
    d q año es ??
    es del 2006 salio el 29 del enero a la venta!

    todabia no termina de bajar :S


  16. #16
    Fecha de ingreso
    19 noviembre 2005
    Ubicación
    en un vynilo
    Edad
    33
    Agradecimientos

    Re: Renaissance Presents 3D: Satoshi Tomiie

    nadie tiene el cue file??????????????
    Activa vs. Chris & Matt Kidd “U.R.” (Stoneface & Terminal mix) (Discover)
    Jochen Miller - Face Value (Extended)[High Contrast]
    Eddie Sender - Sandwalker (Original Mix)[Monster Digital]
    Bryan Kearney - More To Life (Dave Schiemann Remix)[Discover White Label]
    Comunidad Canabica Argentina
    Discover Records Addict

  17. #17
    Fecha de ingreso
    10 julio 2005
    Ubicación
    Caballito
    Edad
    31
    Agradecimientos

    Re: Renaissance Presents 3D: Satoshi Tomiie

    buena ondaaaconsatoshiee, como esta Renassaince!!
    [FONT=Fixedsys]

    'feeling fine...

    fotolog.com/santiago_vb[/FONT]

  18. #18
    Fecha de ingreso
    28 octubre 2005
    Ubicación
    Moscow
    Edad
    49
    Agradecimientos

    Re: Renaissance Presents 3D: Satoshi Tomiie

    FILE "201-va-renaissance_3d_mixed_by_satoshi_tomiie.mp3" MP3
    TRACK 01 AUDIO
    TITLE "The Theme (Reprise)"
    PERFORMER "Loop 7"
    INDEX 01 00:00:00
    TRACK 02 AUDIO
    TITLE "Tears (3D Slightly 303 Version)"
    PERFORMER "Satoshi Tomiie"
    INDEX 01 02:53:52
    TRACK 03 AUDIO
    TITLE "Lover (Satoshi Tomiie 3D Remix)"
    PERFORMER "Chab"
    INDEX 01 09:36:21
    TRACK 04 AUDIO
    TITLE "Mind Rewind (Satoshi Tomiie Mind Blister Remix)"
    PERFORMER "Cass"
    INDEX 01 17:28:00
    TRACK 05 AUDIO
    TITLE "A Lesser Man (Satoshi Tomiie Mix)"
    PERFORMER "Graffik"
    INDEX 01 25:22:27
    TRACK 06 AUDIO
    TITLE "Lonely Child (Satoshi Tomiie 3D Remix)"
    PERFORMER "Slok"
    INDEX 01 33:10:59
    TRACK 07 AUDIO
    TITLE "Hungry (Satoshi Tomiie Vocal Remix - 3D Edit)"
    PERFORMER "Kosheen"
    INDEX 01 40:55:13
    TRACK 08 AUDIO
    TITLE "Mine To Give (Satoshi Tomiie 3D Private Path)"
    PERFORMER "Photek"
    INDEX 01 49:15:21
    TRACK 09 AUDIO
    TITLE "Love In Traffic (3D Private Path)"
    PERFORMER "Satoshi Tomiie Feat Kelli Ali"
    INDEX 01 56:12:03
    TRACK 10 AUDIO
    TITLE "Papua New Guinea (Main Path)"
    PERFORMER "The Future Sound Of London"
    INDEX 01 65:18:43
    TRACK 11 AUDIO
    TITLE "Higher Than A Scyscraper (Satoshi Tomiie 3D Dub)"
    PERFORMER "Hybrid"
    INDEX 01 73:26:25

    PERFORMER "Satoshi Tomiie"
    TITLE "Renaissance 3D"
    FILE "101-va-renaissance_3d_mixed_by_satoshi_tomiie.mp3" MP3
    TRACK 01 AUDIO
    TITLE "Polysquasher"
    PERFORMER "Spirit Catcher"
    INDEX 01 00:00:00
    TRACK 02 AUDIO
    TITLE "People"
    PERFORMER "Dan Berkson"
    INDEX 01 06:14:27
    TRACK 03 AUDIO
    TITLE "Viper Vapour"
    PERFORMER "Only Freak"
    INDEX 01 12:35:23
    TRACK 04 AUDIO
    TITLE "Somewhere"
    PERFORMER "Stereo Type"
    INDEX 01 17:17:16
    TRACK 05 AUDIO
    TITLE "Future"
    PERFORMER "Jim Rivers"
    INDEX 01 24:39:06
    TRACK 06 AUDIO
    TITLE "Stolen Goods"
    PERFORMER "Audiofly X"
    INDEX 01 31:15:23
    TRACK 07 AUDIO
    TITLE "Wicked Line (Original Mix)"
    PERFORMER "Martin Eyerer"
    INDEX 01 37:36:18
    TRACK 08 AUDIO
    TITLE "Big One"
    PERFORMER "Electrochemie "
    INDEX 01 44:33:65
    TRACK 09 AUDIO
    TITLE "Panga"
    PERFORMER "Uppfade"
    INDEX 01 49:38:49
    TRACK 10 AUDIO
    TITLE "I Love Your Shoes"
    PERFORMER "Cass And Mangan"
    INDEX 01 56:30:06
    TRACK 11 AUDIO
    TITLE "X Factor"
    PERFORMER "Guy Gerber"
    INDEX 01 62:05:22
    TRACK 12 AUDIO
    TITLE "Restore"
    PERFORMER "Jim Rivers"
    INDEX 01 69:59:43
    Última edición por AndreXIII; domingo 12 febrero de 2006 a las 08:35 Razón: Sistema Automatico de Union de Mensajes Duplicados
    [FONT="Verdana"]The Freaks Come Out!!![/FONT]

  19. #19
    Fecha de ingreso
    02 julio 2005
    Ubicación
    Fox River
    Edad
    37
    Agradecimientos

    Re: Renaissance Presents 3D: Satoshi Tomiie

    Cita Iniciado por AndreXIII Ver mensaje
    FILE "201-va-renaissance_3d_mixed_by_satoshi_tomiie.mp3" MP3
    TRACK 01 AUDIO
    TITLE "The Theme (Reprise)"
    PERFORMER "Loop 7"
    INDEX 01 00:00:00
    TRACK 02 AUDIO
    TITLE "Tears (3D Slightly 303 Version)"
    PERFORMER "Satoshi Tomiie"
    INDEX 01 02:53:52
    TRACK 03 AUDIO
    TITLE "Lover (Satoshi Tomiie 3D Remix)"
    PERFORMER "Chab"
    INDEX 01 09:36:21
    TRACK 04 AUDIO
    TITLE "Mind Rewind (Satoshi Tomiie Mind Blister Remix)"
    PERFORMER "Cass"
    INDEX 01 17:28:00
    TRACK 05 AUDIO
    TITLE "A Lesser Man (Satoshi Tomiie Mix)"
    PERFORMER "Graffik"
    INDEX 01 25:22:27
    TRACK 06 AUDIO
    TITLE "Lonely Child (Satoshi Tomiie 3D Remix)"
    PERFORMER "Slok"
    INDEX 01 33:10:59
    TRACK 07 AUDIO
    TITLE "Hungry (Satoshi Tomiie Vocal Remix - 3D Edit)"
    PERFORMER "Kosheen"
    INDEX 01 40:55:13
    TRACK 08 AUDIO
    TITLE "Mine To Give (Satoshi Tomiie 3D Private Path)"
    PERFORMER "Photek"
    INDEX 01 49:15:21
    TRACK 09 AUDIO
    TITLE "Love In Traffic (3D Private Path)"
    PERFORMER "Satoshi Tomiie Feat Kelli Ali"
    INDEX 01 56:12:03
    TRACK 10 AUDIO
    TITLE "Papua New Guinea (Main Path)"
    PERFORMER "The Future Sound Of London"
    INDEX 01 65:18:43
    TRACK 11 AUDIO
    TITLE "Higher Than A Scyscraper (Satoshi Tomiie 3D Dub)"
    PERFORMER "Hybrid"
    INDEX 01 73:26:25

    PERFORMER "Satoshi Tomiie"
    TITLE "Renaissance 3D"
    FILE "101-va-renaissance_3d_mixed_by_satoshi_tomiie.mp3" MP3
    TRACK 01 AUDIO
    TITLE "Polysquasher"
    PERFORMER "Spirit Catcher"
    INDEX 01 00:00:00
    TRACK 02 AUDIO
    TITLE "People"
    PERFORMER "Dan Berkson"
    INDEX 01 06:14:27
    TRACK 03 AUDIO
    TITLE "Viper Vapour"
    PERFORMER "Only Freak"
    INDEX 01 12:35:23
    TRACK 04 AUDIO
    TITLE "Somewhere"
    PERFORMER "Stereo Type"
    INDEX 01 17:17:16
    TRACK 05 AUDIO
    TITLE "Future"
    PERFORMER "Jim Rivers"
    INDEX 01 24:39:06
    TRACK 06 AUDIO
    TITLE "Stolen Goods"
    PERFORMER "Audiofly X"
    INDEX 01 31:15:23
    TRACK 07 AUDIO
    TITLE "Wicked Line (Original Mix)"
    PERFORMER "Martin Eyerer"
    INDEX 01 37:36:18
    TRACK 08 AUDIO
    TITLE "Big One"
    PERFORMER "Electrochemie "
    INDEX 01 44:33:65
    TRACK 09 AUDIO
    TITLE "Panga"
    PERFORMER "Uppfade"
    INDEX 01 49:38:49
    TRACK 10 AUDIO
    TITLE "I Love Your Shoes"
    PERFORMER "Cass And Mangan"
    INDEX 01 56:30:06
    TRACK 11 AUDIO
    TITLE "X Factor"
    PERFORMER "Guy Gerber"
    INDEX 01 62:05:22
    TRACK 12 AUDIO
    TITLE "Restore"
    PERFORMER "Jim Rivers"
    INDEX 01 69:59:43
    NICE.
    Lost in a Melody

    John Digweed @ Moonpark XII



  20. #20
    Fecha de ingreso
    05 junio 2005
    Ubicación
    Goa
    Edad
    31
    Agradecimientos

    Re: Renaissance Presents 3D: Satoshi Tomiie

    Q bien q me vieneeee!!!

    gracias
    Artificially Intelligent.....Naturally Brilliant


    Party Generation

Etiquetas para este tema

Información de tema

Usuarios viendo este tema

Actualmente hay 1 usuarios viendo este tema. (0 miembros y 1 visitantes)

Temas similares

  1. Pedido - Musica Satoshi Tomiie 3D Renaissance
    Por CHUSO1 en el foro Archivo de Seccion para Pedidos
    Respuestas: 1
    Último mensaje: sábado 21 noviembre de 2009, 16:31
  2. Pedido - Cue Cue Satoshi Tomiie - Renaissance 3D cd2
    Por infusion en el foro Seccion para Pedidos
    Respuestas: 2
    Último mensaje: viernes 23 marzo de 2007, 19:57
  3. Pedido - Tracklist Satoshi Tomiie Renaissance 3d Disco 2
    Por matute8 en el foro Seccion para Pedidos
    Respuestas: 0
    Último mensaje: lunes 24 julio de 2006, 13:13
  4. Satoshi Tomiie - Renaissance Presents 3D
    Por chApu en el foro SETs
    Respuestas: 0
    Último mensaje: miércoles 01 marzo de 2006, 10:18
  5. Renaissance 3D - Satoshi Tomiie
    Por ibrahack en el foro SETs
    Respuestas: 5
    Último mensaje: miércoles 22 febrero de 2006, 23:40

Permisos de publicación

  • No puedes crear nuevos temas
  • No puedes responder temas
  • No puedes subir archivos adjuntos
  • No puedes editar tus mensajes
  •