Armin Van Buuren - A State of Trance # 232
Resultados 1 al 5 de 5
  1. #1
    Fecha de ingreso
    27 enero 2005
    Ubicación
    Esoty
    Edad
    34
    Agradecimientos

    Armin Van Buuren - A State of Trance # 232

    1. Solar Fields - Overload (DJ Anti & Solarfields remix)
    2. Yourdee vs Tom Glide - Sleeper (Dark Noise recordings)
    3. Parker & Hanson - Let me Be (Skyline)
    4. Under Sun - Captured (Original mix)
    5. Yamin - Almathea (Sander van Dien remix)
    6. Super8 - Helsinki Scorching (Anjunabeats)
    7. Robert Nickson feat. Elsa Hill - Close Your Eyes (ASOT)
    8. Marco V. - False Light (Ton TB remix) (In Charge/Be yourself)
    9. Lange vs Gareth Emery - Three (Lange recordings)
    10. Conscious - Northern Lights (POB remix)
    11. Jochen Miller - Chromatic (High Contrast)
    12. Thomas Bronszwaer - Shadow World (United)
    13. Substate - Horizon (Mac Zimms remix) (Spinnin)
    14. Santoz - Lost Segment
    15. Mike Shiver - Feelings 2006 (Leon Bolier remix) (Skywarp)
    16. Engage - A Beautilful Tomorrow
    17. Unknown Artist - Unknown Title
    18. PG2 - txte for memory (Captivating)

    http://www.sendspace.com/file/nkhjqe

  2. #2
    Fecha de ingreso
    28 agosto 2005
    Ubicación
    adrogue
    Edad
    29
    Agradecimientos

    Re: Armin Van Buuren - A State of Trance # 232

    gracias loko, t zarpaste! le ganast al ke siempre sube los ASOT, creo ke es Chapu.....
    - techminimaldubclick .

  3. #3
    Fecha de ingreso
    27 enero 2005
    Ubicación
    Esoty
    Edad
    34
    Agradecimientos

    Re: Armin Van Buuren - A State of Trance # 232

    nah, no es cuestion de ganar, es cuestion de compartir.

    un abrazo.

    igual chapu sube el 98,7% del material que está acá, realmente se excede en groso.

  4. #4
    Fecha de ingreso
    07 octubre 2005
    Ubicación
    Bahia Blanca
    Edad
    32
    Agradecimientos

    Re: Armin Van Buuren - A State of Trance # 232

    CHAS GRACIASSSSSSSSSSSS

    bajandoo!

  5. #5
    Fecha de ingreso
    02 junio 1998
    Ubicación
    Plus Ultra
    Agradecimientos

    Re: Armin Van Buuren - A State of Trance # 232

    CUE

    TRACK 01 AUDIO
    TITLE "www.COBRAWS.com"
    PERFORMER "Tracked by COBRAws"
    INDEX 01 00:00:00
    TRACK 02 AUDIO
    TITLE "Overload (DJ Anti & Solarfields remix)"
    PERFORMER "01 - Solar Fields"
    INDEX 01550151017 00:00:01
    TRACK 03 AUDIO
    TITLE "Sleeper (Dark Noise recordings)"
    PERFORMER "02 - Yourdee vs Tom Glide"
    INDEX 01766223201 08:46:00
    TRACK 04 AUDIO
    TITLE "Let me Be (Skyline)"
    PERFORMER "03 - Parker & Hanson"
    INDEX 01635148106 10:56:00
    TRACK 05 AUDIO
    TITLE "Captured (Original mix)"
    PERFORMER "04 - Under Sun"
    INDEX 01095909967 19:16:30
    TRACK 06 AUDIO
    TITLE "Almathea (Sander van Dien remix)"
    PERFORMER "05 - Yamin"
    INDEX 01162690894 25:20:00
    TRACK 07 AUDIO
    TITLE "Helsinki Scorching (Anjunabeats)"
    PERFORMER "06 - Super8"
    INDEX 01634035828 32:25:00
    TRACK 08 AUDIO
    TITLE "Close Your Eyes (ASOT)"
    PERFORMER "07 - Robert Nickson feat. Elsa Hill"
    INDEX 0170930234 40:00:00
    TRACK 09 AUDIO
    TITLE "False Light (Ton TB remix) (In Charge/Be yourself)"
    PERFORMER "08 - Marco V."
    INDEX 01968381997 46:38:50
    TRACK 10 AUDIO
    TITLE "Three (Lange recordings)"
    PERFORMER "09 - Lange vs Gareth Emery"
    INDEX 01 55:08:00
    TRACK 11 AUDIO
    TITLE "Northern Lights (POB remix)"
    PERFORMER "10 - Conscious"
    INDEX 01031041897 61:47:00
    TRACK 12 AUDIO
    TITLE "Chromatic (High Contrast)"
    PERFORMER "11 - Jochen Miller"
    INDEX 01869636965 67:52:00
    TRACK 13 AUDIO
    TITLE "Shadow World (United) "
    PERFORMER "12 - Thomas Bronszwaer"
    INDEX 01 69:43:30
    TRACK 14 AUDIO
    TITLE "Horizon (Mac Zimms remix) (Spinnin)"
    PERFORMER "13 - Substate"
    INDEX 0168636469 74:35:00
    TRACK 15 AUDIO
    TITLE "Lost Segment"
    PERFORMER "14 - Santoz"
    INDEX 02003136010 81:30:00
    TRACK 16 AUDIO
    TITLE "Feelings 2006 (Leon Bolier remix) (Skywarp) "
    PERFORMER "15 - Mike Shiver"
    INDEX 0225866606 88:13:00
    TRACK 17 AUDIO
    TITLE "A Beautilful Tomorrow "
    PERFORMER "16 - Engage"
    INDEX 01953391971 102:58:00
    TRACK 18 AUDIO
    TITLE "Unknown Title"
    PERFORMER "17 - Unknown Artist"
    INDEX 01835099506 109:51:00
    TRACK 19 AUDIO
    TITLE "txte for memory (Captivating)"
    PERFORMER "18 - PG2"
    INDEX 01835099506 110:20:60

Etiquetas para este tema

Información de tema

Usuarios viendo este tema

Actualmente hay 1 usuarios viendo este tema. (0 miembros y 1 visitantes)

Temas similares

  1. Respuestas: 0
    Último mensaje: lunes 10 septiembre de 2012, 01:31
  2. Respuestas: 0
    Último mensaje: sábado 05 marzo de 2011, 05:36
  3. Respuestas: 0
    Último mensaje: lunes 21 febrero de 2011, 16:41
  4. Pedido - Musica Armin Van Buuren - A State of Trance (002-064-074)
    Por Luciano Bk en el foro Archivo de Seccion para Pedidos
    Respuestas: 2
    Último mensaje: jueves 22 enero de 2009, 03:51
  5. Pedido - Cue SET - Trance: Armin Van Buuren - A State Of Trance Episode 321 (11-10-2007)
    Por ajuarezdover en el foro Archivo de Seccion para Pedidos
    Respuestas: 2
    Último mensaje: miércoles 11 junio de 2008, 22:48

Permisos de publicación

  • No puedes crear nuevos temas
  • No puedes responder temas
  • No puedes subir archivos adjuntos
  • No puedes editar tus mensajes
  •