Fuck Me I'm Famous! - Mixed by David Guetta [FMIFCD01] (2CD) (2005)

-- Publicidad --

Delta 90.3

Resultados 1 al 8 de 8
  1. #1
    Fecha de ingreso
    01 octubre 2005
    Ubicación
    Rg
    Agradecimientos

    Review Fuck Me I'm Famous! - Mixed by David Guetta [FMIFCD01] (2CD) (2005)



    PERFORMER "David Guetta"
    TITLE "Fuck Me I'm Famous! (CD1)"
    FILE "Fuck Me I'm Famous! - Mixed by David Guetta (CD1).mp3" MP3
    TRACK 01 AUDIO
    TITLE "Most Precious Love"
    PERFORMER "Blaze Presents UDA Feat. Barbara Tucker"
    INDEX 01 00:00:00
    TRACK 02 AUDIO
    TITLE Gabryelle
    PERFORMER "DJ Spen Presents DJ Technic"
    INDEX 01 06:19:52
    TRACK 03 AUDIO
    TITLE Yeah
    PERFORMER "Angello & Ingrosso"
    INDEX 01 10:46:69
    TRACK 04 AUDIO
    TITLE "Pump Up The Jam"
    PERFORMER "D.O.N.S. Feat. Technotronic"
    INDEX 01 15:17:51
    TRACK 05 AUDIO
    TITLE "Geht’s Noch?"
    PERFORMER "Roman Flugel"
    INDEX 01 19:24:63
    TRACK 06 AUDIO
    TITLE "Not So Dirty"
    PERFORMER "Who's Who?"
    INDEX 01 21:47:25
    TRACK 07 AUDIO
    TITLE "The World Is Mine (F*** Me I'm Famous Remix)"
    PERFORMER "David Guetta Feat. JD Davis & Joachim Garraud"
    INDEX 01 24:30:71
    TRACK 08 AUDIO
    TITLE "Miss Me Blind (David Guetta & Joachim Garraud F*** Me I'm Famous Mix)"
    PERFORMER "Culture Club"
    INDEX 01 29:52:28
    TRACK 09 AUDIO
    TITLE "Rock the Choice (Sebastian Ingrosso Remix)"
    PERFORMER "Joachim Garraud"
    INDEX 01 33:34:30
    TRACK 10 AUDIO
    TITLE Manga
    PERFORMER H-Man
    INDEX 01 37:21:62
    TRACK 11 AUDIO
    TITLE "Avalon (F*** Me I'm Famous Remix)"
    PERFORMER Juliet
    INDEX 01 41:00:39
    TRACK 12 AUDIO
    TITLE "The Drill"
    PERFORMER "The Drill"
    INDEX 01 47:19:01
    TRACK 13 AUDIO
    TITLE "In Love With Myself (Robbie Rivera Remix)"
    PERFORMER "David Guetta"
    INDEX 01 50:57:31
    TRACK 14 AUDIO
    TITLE "Waiting In The Darkness (Harry ''Choo Choo'' Romero Remix)"
    PERFORMER "Morillo Feat. Leslie Carter"
    INDEX 01 56:17:62

    http://www.sexuploader.com/?d=QX86K0C8

    PERFORMER "David Guetta"
    TITLE "Fuck Me I'm Famous! (CD2)"
    FILE "Fuck Me I'm Famous! - Mixed by David Guetta (CD2).mp3" MP3
    TRACK 01 AUDIO
    TITLE "Louder Than A Bomb"
    PERFORMER Tiga
    INDEX 01 00:00:00
    TRACK 02 AUDIO
    TITLE "We Interrupt This Program"
    PERFORMER Coburn
    INDEX 01 04:27:52
    TRACK 03 AUDIO
    TITLE "First Day (Buick Project Dub)"
    PERFORMER "Timo Maas"
    INDEX 01 07:12:69
    TRACK 04 AUDIO
    TITLE "Wait & See (Alter Ego Remix)"
    PERFORMER "Tiefschwarz Feat. Chikinki"
    INDEX 01 11:57:36
    TRACK 05 AUDIO
    TITLE "Sword Fight"
    PERFORMER "Lower East Side"
    INDEX 01 14:57:23
    TRACK 06 AUDIO
    TITLE "It's Magic (Lottie & Serge Santiago's Version)"
    PERFORMER "Fat Phaze"
    INDEX 01 18:18:05
    TRACK 07 AUDIO
    TITLE "Bright Lights Fading"
    PERFORMER "Slam Feat. Billie Ray Martin"
    INDEX 01 22:10:47
    TRACK 08 AUDIO
    TITLE "Sweat (On The Walls)"
    PERFORMER "John Tejada"
    INDEX 01 25:10:49
    TRACK 09 AUDIO
    TITLE Safari
    PERFORMER "André Kraml Feat. Schad Privat"
    INDEX 01 29:10:56
    TRACK 10 AUDIO
    TITLE "Du What U Du (TrenteMøller Remix)"
    PERFORMER Yoshimoto
    INDEX 01 31:55:73
    TRACK 11 AUDIO
    TITLE "You Made A Promise (F*** Me I'm Famous Remix)"
    PERFORMER "Shiny Grey"
    INDEX 01 37:18:05
    TRACK 12 AUDIO
    TITLE Believe
    PERFORMER "The Chemical Brothers"
    INDEX 01 41:13:62
    TRACK 13 AUDIO
    TITLE Infatuation
    PERFORMER "Jan Francisco Meets Joseph Armani"
    INDEX 01 45:23:18
    TRACK 14 AUDIO
    TITLE "Someone Like You (Fast Track Vocal Mix)"
    PERFORMER "Etienne De Crecy Presents Super Discount 2"
    INDEX 01 48:52:23
    TRACK 15 AUDIO
    TITLE "Closer To Me"
    PERFORMER "Chab Feat. JD Davis"
    INDEX 01 51:58:70

    http://www.megaupload.com/?d=AEZA8QIR

    Sinceramente lo busque antes de postear y no lo encontre Mil disculpas si esta repetido.

    saludos!
    Última edición por Homero groxo; martes 10 enero de 2006 a las 02:22

  2. #2
    Fecha de ingreso
    29 noviembre 2005
    Ubicación
    Lanus
    Agradecimientos

    Re: Fuck Me I'm Famous! - Mixed by David Guetta [FMIFCD01] (2CD) (2005)

    no podrias subir el cd1 a megaupload? tengo problemas con sendspace ...
    gracias!
    EL_WACHITURRO
    soundcloud [dot] com/rejipishic
    mixcloud [dot] com/29054166

    underground club music & more

  3. #3
    Fecha de ingreso
    01 octubre 2005
    Ubicación
    Rg
    Agradecimientos

    Re: Fuck Me I'm Famous! - Mixed by David Guetta [FMIFCD01] (2CD) (2005)

    Hay lo arregle tenias razon... no se podia bajar.. mis disculpas.

    Saludos!!

  4. #4
    Fecha de ingreso
    06 septiembre 2005
    Edad
    36
    Agradecimientos

    Re: Fuck Me I'm Famous! - Mixed by David Guetta [FMIFCD01] (2CD) (2005)

    Esta muy buenoo!!!
    Gracias!!
    [FONT="Comic Sans MS"]..."All U need is LoVe"...[/FONT]

  5. #5
    Fecha de ingreso
    19 noviembre 2005
    Ubicación
    Wolfville
    Edad
    29
    Agradecimientos

    Re: Fuck Me I'm Famous! - Mixed by David Guetta [FMIFCD01] (2CD) (2005)

    mmm yo siguo teniendo problemas con el cd1! :(

  6. #6
    Fecha de ingreso
    16 febrero 2005
    Ubicación
    Vicente Lopez
    Agradecimientos

    Re: Fuck Me I'm Famous! - Mixed by David Guetta [FMIFCD01] (2CD) (2005)

    ya esta se arrglo bajando el cd1 , mil gracias!
    Unless we believe in ourselves, nobody will do it, this is the council that leads to the achievement and success

  7. #7
    Fecha de ingreso
    13 octubre 2005
    Edad
    29
    Agradecimientos

    Re: Fuck Me I'm Famous! - Mixed by David Guetta [FMIFCD01] (2CD) (2005)

    Muyyy bueno !!! Muchas Gracias Homero : )

  8. #8
    Fecha de ingreso
    26 septiembre 2005
    Ubicación
    Buenos Aires
    Agradecimientos

    Re: Fuck Me I'm Famous! - Mixed by David Guetta [FMIFCD01] (2CD) (2005)

    no te puedo creer man...... el CD 01 es una VERGUENZA ( el unico que escuche)

    escucharon las mezclas? EL FLACO NO MEZCLA, mezcla los temas cuando termina, PIZZERO DE MIERDA

    LO ODIO Y LO ODIO, POR FALSO

    me voy re caliente

    chau

Etiquetas para este tema

Información de tema

Usuarios viendo este tema

Actualmente hay 1 usuarios viendo este tema. (0 miembros y 1 visitantes)

Temas similares

  1. David Guetta - Fuck Me I'm Famous Vol.5
    Por Ojitos en el foro Discusiones sobre DJs & Sellos
    Respuestas: 3
    Último mensaje: martes 22 septiembre de 2009, 13:43
  2. Pedido - Tracklist David Guetta ¿Fuck Me I'm Famous?
    Por eldani78 en el foro Seccion para Pedidos
    Respuestas: 4
    Último mensaje: jueves 16 agosto de 2007, 02:06
  3. Respuestas: 0
    Último mensaje: lunes 23 enero de 2006, 14:18

Permisos de publicación

  • No puedes crear nuevos temas
  • No puedes responder temas
  • No puedes subir archivos adjuntos
  • No puedes editar tus mensajes
  •