PERFORMER "Loco Dice"
TITLE "Green & Blue (CD1)"
FILE "Green & Blue - Mixed by Loco Dice (CD1).mp3" MP3
TRACK 01 AUDIO
TITLE "Listen To Eddy"
PERFORMER "Pier Bucci & Pink Elln"
INDEX 01 00:00:00
TRACK 02 AUDIO
TITLE "Beginning Weekend"
PERFORMER "Alexander East"
INDEX 01 03:37:31
TRACK 03 AUDIO
TITLE "Las Velas No Arden"
PERFORMER "A. Vivanco"
INDEX 01 08:25:68
TRACK 04 AUDIO
TITLE Determination
PERFORMER "Nima Gorji"
INDEX 01 13:39:22
TRACK 05 AUDIO
TITLE Rame
PERFORMER "DJ Red"
INDEX 01 20:02:11
TRACK 06 AUDIO
TITLE "Fucky (Murat Tepeli's Remix)"
PERFORMER Reiky
INDEX 01 24:43:60
TRACK 07 AUDIO
TITLE "Funky Vodoo Mama"
PERFORMER Bearback
INDEX 01 26:40:35
TRACK 08 AUDIO
TITLE "Teco (Pier Bucci & Pink Elln Remix)"
PERFORMER "Monne Automne"
INDEX 01 32:09:22
TRACK 09 AUDIO
TITLE "Perry Rhodan"
PERFORMER "Philip Bader"
INDEX 01 37:43:56
TRACK 10 AUDIO
TITLE "Love Is Not A Ritual (Dave Shokh And Wimpy Remix)"
PERFORMER "Revolver Jesus"
INDEX 01 43:09:34
TRACK 11 AUDIO
TITLE "Futurist (Loudefied Discoblend Remix"
PERFORMER Loude
INDEX 01 48:10:48
TRACK 12 AUDIO
TITLE "What Comes Around"
PERFORMER "Pig & Dan"
INDEX 01 52:18:57
TRACK 13 AUDIO
TITLE Infiltrate
PERFORMER "Traffic Signs"
INDEX 01 57:17:32
TRACK 14 AUDIO
TITLE "Jacuzzi Games"
PERFORMER "Loco Dice"
INDEX 01 63:11:02
TRACK 15 AUDIO
TITLE "Medusa Smile"
PERFORMER "Konrad Black & Ghostman"
INDEX 01 69:18:09

http://www.sexuploader.com/?d=JE7106O1


PERFORMER "Ricardo Villalobos"
TITLE "Green & Blue (CD2)"
FILE "Green & Blue - Mixed by Ricardo Villalobos (CD2).mp3" MP3
TRACK 01 AUDIO
TITLE Detox
PERFORMER "Delano Smith"
INDEX 01 00:00:00
TRACK 02 AUDIO
TITLE "Keep On Turning Around (Motorcitysoul Original Dub)"
PERFORMER "Kids In The Street"
INDEX 01 03:54:71
TRACK 03 AUDIO
TITLE Jeckle
PERFORMER Roman
INDEX 01 09:18:58
TRACK 04 AUDIO
TITLE Krafty
PERFORMER "Kenny Dope Gonzales"
INDEX 01 13:16:41
TRACK 05 AUDIO
TITLE "Do Robots Have Soul ?"
PERFORMER Sasse
INDEX 01 16:09:41
TRACK 06 AUDIO
TITLE "Wortkabular (Tobineumannsricardosingtvocalpercussionundgretada salphabet RMX)"
PERFORMER "Robag Wruhme"
INDEX 01 20:46:22
TRACK 07 AUDIO
TITLE "Bear Bounces Back"
PERFORMER "Donnacha Costello"
INDEX 01 24:09:55
TRACK 08 AUDIO
TITLE Infected
PERFORMER "John Tejada"
INDEX 01 26:57:31
TRACK 09 AUDIO
TITLE "My Dry Valentine"
PERFORMER Luci
INDEX 01 30:07:72
TRACK 10 AUDIO
TITLE "Earth Browser"
PERFORMER "Guido Schneider"
INDEX 01 31:34:31
TRACK 11 AUDIO
TITLE "Critical (Bunkin School Dub Mix)"
PERFORMER "Rob Mellow"
INDEX 01 39:05:49
TRACK 12 AUDIO
TITLE Stylewars
PERFORMER "Sammy Dee & Guido Schneider"
INDEX 01 44:22:39
TRACK 13 AUDIO
TITLE Rubicube
PERFORMER Digitaline
INDEX 01 50:05:06
TRACK 14 AUDIO
TITLE "Deception De Real"
PERFORMER "Tim Xavier"
INDEX 01 52:49:57
TRACK 15 AUDIO
TITLE "Machinery Mix"
PERFORMER "Darth Vega"
INDEX 01 55:34:50
TRACK 16 AUDIO
TITLE "Put'em Up"
PERFORMER Woody
INDEX 01 64:01:33
TRACK 17 AUDIO
TITLE Patrik
PERFORMER "Dr. Mottes Euphorhythm"
INDEX 01 69:05:49
TRACK 18 AUDIO
TITLE "Take Me Back"
PERFORMER "Mystic Bill"
INDEX 01 73:28:35

http://www.megaupload.com/?d=FOHGJSBE


Recomendacion el set de loco se va al carajo mal!!! lastima que se le corre un cachito al minuto 48,15

What Comes Around-Pig & Dan ===>BOOOM!!!