Global Underground Lights Out 003 - Mixed by Steve Lawler (Limited Edition) 3CD 2005

-- Publicidad --

Aftercluv 3

Resultados 1 al 11 de 11
  1. #1
    Fecha de ingreso
    01 octubre 2005
    Ubicación
    Rg
    Agradecimientos

    Review Global Underground Lights Out 003 - Mixed by Steve Lawler (Limited Edition) 3CD 2005

    TITLE "Global Underground Lights Out 003 (CD1)"
    FILE "Global Underground Lights Out 003 - Mixed by Steve Lawler (CD1).mp3"
    TRACK 01 AUDIO
    TITLE "Intro 01"
    PERFORMER "Lights Out"
    INDEX 01 00:00:00
    TRACK 02 AUDIO
    TITLE Wait
    PERFORMER "Ben Wajay"
    INDEX 01 02:09:43
    TRACK 03 AUDIO
    TITLE "Attack Mars!"
    PERFORMER "Nick K"
    INDEX 01 06:52:33
    TRACK 04 AUDIO
    TITLE "Friday (Trentemoller)"
    PERFORMER "Fred Everything & 20 For 7 Feat. Vanessa Baker"
    INDEX 01 11:41:73
    TRACK 05 AUDIO
    TITLE Hit
    PERFORMER "J&S Project"
    INDEX 01 15:22:68
    TRACK 06 AUDIO
    TITLE Denly
    PERFORMER "Swain & Snell"
    INDEX 01 19:41:72
    TRACK 07 AUDIO
    TITLE Moltobeat
    PERFORMER Neverdogs
    INDEX 01 24:16:18
    TRACK 08 AUDIO
    TITLE "Out Of Bass"
    PERFORMER "Livio & Roby"
    INDEX 01 29:28:48
    TRACK 09 AUDIO
    TITLE "Drop Big Bombs"
    PERFORMER "Danielle Tignino Presents Rice & Peas"
    INDEX 01 35:05:57
    TRACK 10 AUDIO
    TITLE "Happy Days Don't Stop (Fedo Orange Mix)"
    PERFORMER F.E.D.O
    INDEX 01 40:54:25
    TRACK 11 AUDIO
    TITLE Flamenco
    PERFORMER Wawa
    INDEX 01 45:00:04
    TRACK 12 AUDIO
    TITLE "Bitter Sweet (Terrace Mix)"
    PERFORMER "Livio & Roby"
    INDEX 01 48:02:69
    TRACK 13 AUDIO
    TITLE Moogment
    PERFORMER "Alex McCulloch"
    INDEX 01 54:16:20
    TRACK 14 AUDIO
    TITLE "The Conjure (Steve Lawler Mix)"
    PERFORMER "The Skeleton Key"
    INDEX 01 59:36:18

    http://www.megaupload.com/?d=VSX4UGZI ==>(CD 01)


    TITLE "Global Underground Lights Out 003 (CD2)"
    FILE "Global Underground Lights Out 003 - Mixed by Steve Lawler (CD2).mp3" MP3
    TRACK 01 AUDIO
    TITLE "Intro 2"
    PERFORMER "Lights Out"
    INDEX 01 00:00:00
    TRACK 02 AUDIO
    TITLE "Like This"
    PERFORMER "Matthias Hellbronn"
    INDEX 01 03:00:44
    TRACK 03 AUDIO
    TITLE "Creaky Thoughts (Original Mix)"
    PERFORMER "Anja Schneider"
    INDEX 01 08:48:16
    TRACK 04 AUDIO
    TITLE "Daily Disco (Original Mix)"
    PERFORMER Lutzenkirchen
    INDEX 01 12:34:73
    TRACK 05 AUDIO
    TITLE "Lets Go"
    PERFORMER Mono
    INDEX 01 17:59:72
    TRACK 06 AUDIO
    TITLE "Obsessive Sound"
    PERFORMER "Alex Dolby"
    INDEX 01 23:32:27
    TRACK 07 AUDIO
    TITLE ABC
    PERFORMER "Drax & Gooding Feat. Taariq"
    INDEX 01 31:05:53
    TRACK 08 AUDIO
    TITLE "I Don't Know (King Unique Remix)"
    PERFORMER "Suicide Sports Club"
    INDEX 01 37:38:35
    TRACK 09 AUDIO
    TITLE "Hugs N' Kisses"
    PERFORMER "Criss Source"
    INDEX 01 41:40:58
    TRACK 10 AUDIO
    TITLE "Metro Kiev (Ricky Ryan Edit)"
    PERFORMER Blendbrank
    INDEX 01 47:15:15
    TRACK 11 AUDIO
    TITLE "Pushin Too Hard (Ricky Ryan Edit)"
    PERFORMER "Saints & Sinners"
    INDEX 01 48:45:58
    TRACK 12 AUDIO
    TITLE "What Is This"
    PERFORMER "Swain & Paris"
    INDEX 01 53:02:66
    TRACK 13 AUDIO
    TITLE "Feel The Vibe (Till The Morning Comes) (Semus Haji)"
    PERFORMER Axwell
    INDEX 01 58:20:15
    TRACK 14 AUDIO
    TITLE "Rhythmique (Grayson Shipley Re-Edit)"
    PERFORMER "Stu Hirst"
    INDEX 01 66:11:73

    http://www.megaupload.com/?d=U2FK1HS4 ==>(CD 02)


    TITLE "Global Underground Lights Out 003 (CD3)"
    FILE "Global Underground Lights Out 003 - Mixed by Steve Lawler (CD3).mp3" MP3
    TRACK 01 AUDIO
    TITLE Track01
    PERFORMER "Unknown Artist"
    INDEX 01 00:00:00
    TRACK 02 AUDIO
    TITLE Track02
    PERFORMER "Unknown Artist"
    INDEX 01 08:19:63
    TRACK 03 AUDIO
    TITLE Track03
    PERFORMER "Unknown Artist"
    INDEX 01 14:43:31
    TRACK 04 AUDIO
    TITLE Track04
    PERFORMER "Unknown Artist"
    INDEX 01 21:31:41
    TRACK 05 AUDIO
    TITLE Track05
    PERFORMER "Unknown Artist"
    INDEX 01 27:53:14
    TRACK 06 AUDIO
    TITLE Track06
    PERFORMER "Unknown Artist"
    INDEX 01 34:26:17


    http://www.megaupload.com/?d=5OORH3IH ==>(CD03)

    Busque y creo que no esta, en caso de que este disculpen no fue a proposito :(

    Este señor me puede!!!


  2. #2
    Fecha de ingreso
    31 agosto 2004
    Ubicación
    Lanus Oeste
    Edad
    34
    Agradecimientos

    Gracioso Re: Global Underground Lights Out 003 - Mixed by Steve Lawler (Limited Edition) 3CD 2005

    aaaaaaaah ya mismo lo bajo

    Steve Lawler rockanrolea
    Cha gracias =D
    p.d : Homero muy buenas cosas posteas de musica
    This is...

  3. #3
    Fecha de ingreso
    19 septiembre 1997
    Ubicación
    Ciudad Autónoma de Buenos Aires
    Agradecimientos

    Re: Global Underground Lights Out 003 - Mixed by Steve Lawler (Limited Edition) 3CD 2005

    Alex Dolby - Obsessive Sound.....
    que tema zarpado por dios
    .:: Kero ::.
    Por consultas del foro, dirigirse a Julian

  4. #4
    Fecha de ingreso
    26 septiembre 2005
    Ubicación
    Buenos Aires
    Agradecimientos

    Re: Global Underground Lights Out 003 - Mixed by Steve Lawler (Limited Edition) 3CD 2005

    zarpado tracklist! bajando, lindos aportes homero trippero :p

    Cita Iniciado por Kerozene Ver mensaje
    Alex Dolby - Obsessive Sound.....
    que tema zarpado por dios
    tu lo has dicho

  5. #5
    Fecha de ingreso
    03 agosto 2004
    Ubicación
    CabashiT
    Edad
    33
    Agradecimientos

    Re: Global Underground Lights Out 003 - Mixed by Steve Lawler (Limited Edition) 3CD 2005

    Excelente aporte Homero, el que me faltaba para mi coleccion de Global Underground.

    CD 3: SPECIAL HARLEM RECORDS MIX
    Audiofly Loves Miss Jools– Not What We Was
    Filthy Rich – Shake it
    T-Total – Give Me Funk (Phil Dockerty Pravo Re-mix)
    D-Drive presents Dave Oldshaw – Orgasm
    Chuck Lepley – Eyes (Cataracts Vocal Mix)
    Livio & Roby – Headz On
    Última edición por Dr Goyo; domingo 08 enero de 2006 a las 16:33

  6. #6
    Fecha de ingreso
    31 agosto 2004
    Ubicación
    Lanus Oeste
    Edad
    34
    Agradecimientos

    Gracioso Re: Global Underground Lights Out 003 - Mixed by Steve Lawler (Limited Edition) 3CD 2005

    aahha buenisimo goyo, faltaban los nombres
    This is...

  7. #7
    Fecha de ingreso
    01 octubre 2005
    Ubicación
    Rg
    Agradecimientos

    Re: Global Underground Lights Out 003 - Mixed by Steve Lawler (Limited Edition) 3CD 2

    Aps ;S no me di cuenta que el tres no tenia nombre!! sorry, tanks goyo!
    Me alegro que les guste!!
    Nos tamos viendo

  8. #8
    Fecha de ingreso
    26 abril 2005
    Ubicación
    lata
    Agradecimientos

    Re: Global Underground Lights Out 003 - Mixed by Steve Lawler (Limited Edition) 3CD 2

    groxo homer groxo
    gracias x el cue tmb



    Label: Boxed
    Format: 3xCD , Mixed
    Country: UK
    Released: 2005
    Style: Progressive House, House, Tech House, Acid House

    Tracklisting:
    CD1-01 Lights Out - Intro (Part 1)
    CD1-02 Ben Wijay - Wait
    CD1-03 Nick K - Attack Mars!
    CD1-04 Fred Everything & 20 for 7 - Friday (Trentemøller Mix) Featuring - Vanessa Baker
    CD1-05 J&S Project - Hit
    CD1-06 Swain & Snell - Deniy
    CD1-07 Neverdogs - Moltobeat
    CD1-08 Livio & Roby- Out Of Bass
    CD1-09 Rice & Peas - Drop Big Bombs
    CD1-10 Fedo - Happy Days (Don't Stop) (Fedo Orange Mix)
    CD1-11 Wawa - Flamenco (Lawlers Lights Out Edit)
    CD1-12 Livio & Roby - Bitter Sweet (Terrace Mix)
    CD1-13 Alex McCulloch - Moogment
    CD1-14 Skeleton Key, The - The Conjure (Steve Lawler Remix)

    CD2-01 Lights Out - Intro (Part 2)
    CD2-02 Matthias Heilbronn - Like This (Lawlers Lights Out Edit)
    CD2-03 Anja Schneider - Creaky Thoughts
    CD2-04 Lützenkirchen - Daily Disco (Original Mix)
    CD2-05 Mono (2) - Let's Go
    CD2-06 Alex Dolby - Obsessive Sound
    CD2-07 Drax & Gooding - ABC
    CD2-08 Suicide Sports Club - I Don't Know (King Unique Remix)
    CD2-09 Criss Source - Hugs'n Kisses
    CD2-10 Blendbrank - Metro Kiev (Ricky Ryan Edit)
    CD2-11 Saints & Sinners - Pushin Too Hard (Ricky Ryan Edit)
    CD2-12 Swain & Paris - What Is This?
    CD2-13 Axwell - Feel The Vibe (Till The Morning Comes) (Seamus Haji Exclusive Lights Out Edit)
    CD2-14 Stu Hirst - Rhythmique (Grayson Shipley Re-Edit)

    CD3-01 Audiofly Loves Miss Jools - Not What We Was
    CD3-02 Filthy Rich - Shake It
    CD3-03 T-Total - Give Me Funk (Phil Dockerty Pravo Remix)
    CD3-04 Dave Oldshaw - Orgasm
    CD3-05 Chuck Lepley - Eyes (Cataracts Vocal Mix)
    CD3-06 Livio & Roby - Headz On


  9. #9
    Fecha de ingreso
    19 septiembre 1997
    Ubicación
    Ciudad Autónoma de Buenos Aires
    Agradecimientos

    Re: Global Underground Lights Out 003 - Mixed by Steve Lawler (Limited Edition) 3CD 2005

    le agregue el tracklist al cue

    saludos

    TITLE "Global Underground Lights Out 003 (CD3)"
    FILE "Global Underground Lights Out 003 - Mixed by Steve Lawler (CD3).mp3" MP3
    TRACK 01 AUDIO
    TITLE "Not What We Was"
    PERFORMER "Audiofly Loves Miss Jools"
    INDEX 01 00:00:00
    TRACK 02 AUDIO
    TITLE "Shake it"
    PERFORMER "Filthy Rich"
    INDEX 01 08:19:63
    TRACK 03 AUDIO
    TITLE "Give Me Funk (Phil Dockerty Pravo Re-mix)"
    PERFORMER "T-Total"
    INDEX 01 14:43:31
    TRACK 04 AUDIO
    TITLE "Orgasm"
    PERFORMER "D-Drive presents Dave Oldshaw"
    INDEX 01 21:31:41
    TRACK 05 AUDIO
    TITLE "Eyes (Cataracts Vocal Mix)"
    PERFORMER "Chuck Lepley"
    INDEX 01 27:53:14
    TRACK 06 AUDIO
    TITLE "Headz On"
    PERFORMER "Livio & Roby"
    INDEX 01 34:26:17
    .:: Kero ::.
    Por consultas del foro, dirigirse a Julian

  10. #10
    Fecha de ingreso
    02 julio 2005
    Ubicación
    Fox River
    Edad
    37
    Agradecimientos

    Re: Global Underground Lights Out 003 - Mixed by Steve Lawler (Limited Edition) 3CD 2005

    no me anda el 3er link (CD3) :(
    Lost in a Melody

    John Digweed @ Moonpark XII



  11. #11
    Fecha de ingreso
    19 noviembre 2005
    Ubicación
    en un vynilo
    Edad
    33
    Agradecimientos

    Gracioso Re: Global Underground Lights Out 003 - Mixed by Steve Lawler (Limited Edition) 3CD 2005

    huuuuuuuuuuu que buen disco
    downloading
    Activa vs. Chris & Matt Kidd “U.R.” (Stoneface & Terminal mix) (Discover)
    Jochen Miller - Face Value (Extended)[High Contrast]
    Eddie Sender - Sandwalker (Original Mix)[Monster Digital]
    Bryan Kearney - More To Life (Dave Schiemann Remix)[Discover White Label]
    Comunidad Canabica Argentina
    Discover Records Addict

Etiquetas para este tema

Información de tema

Usuarios viendo este tema

Actualmente hay 1 usuarios viendo este tema. (0 miembros y 1 visitantes)

Temas similares

  1. Pedido - Musica Steve Lawler - Global Underground: Nubreed
    Por psiche en el foro Archivo de Seccion para Pedidos
    Respuestas: 2
    Último mensaje: lunes 15 marzo de 2010, 15:37
  2. Respuestas: 0
    Último mensaje: viernes 17 octubre de 2008, 16:24
  3. Respuestas: 0
    Último mensaje: sábado 27 agosto de 2005, 04:15

Permisos de publicación

  • No puedes crear nuevos temas
  • No puedes responder temas
  • No puedes subir archivos adjuntos
  • No puedes editar tus mensajes
  •