Paul van Dyk - VONYC Holiday Mix (25.12.2005)

-- Publicidad --

Delta 90.3

Resultados 1 al 3 de 3
  1. #1
    Fecha de ingreso
    27 enero 2005
    Ubicación
    Ciudad Autónoma de Buenos Aires
    Edad
    29
    Agradecimientos

    Paul van Dyk - VONYC Holiday Mix (25.12.2005)

    mira lo q es este TL !!!!!!!!!!!!!!!!!!!!

    01. Giuseppe Ottaviani - Linking People (Marc van Linden Remix)
    02. Dogzilla - Without You (12" Mix)
    03. Endre - Kallocain (Robert Nickson Remix)
    04. DJ SHOG - Running Water (SHOGs 2Faces Mix)
    05. Stenna - Skyline (Arizona Remix)
    06. Mr. Sam - Lyteo (Rank 1 Remix)
    07. Kyau vs. Albert - Falling Anywhere (Rework)
    08. Rob Lemon - Calling From Zurich
    09. D-Nox & Becker - Jet Lag Slave
    10. Paul van Dyk feat. Wayne Jackson - The Other Side (Deep Dish Other Than
    This Side Remix)
    11. Purple Haze - Rush
    12. Jose Amnesia vs. Serp - Second Day (Martin Roth Remix)
    13. Reflekt feat. Delline Bass - Need To Feel Loved (Marc van Linden Remix)
    14. Electrovoya - Days Like These
    15. Plastic Angel - Sirene
    16. Yellow Blackboard - Superfly (Andy Moor Remix)
    17. Second Sun - Playground (Nu-NRG Remix)
    18. M.I.D.O.R. & Six4Eight - Oblivion
    19. Kuffdam & Plant - Summerdream (Paul van Dyk Remix)
    20. Santiago Nino feat. Paleday - Arpeggia (High On Life) (Vocal Mix)
    21. Marcos - Cosmic String (Marc van Linden Remix)
    22. Paul van Dyk - Vega

    http://www.uploading.com/?get=T9DKB1DQ
    "The opinions expressed herein are not necessarily those of my employer, not necessarily mine, and probably not necessary."

  2. #2
    Fecha de ingreso
    31 agosto 2004
    Ubicación
    Lanus Oeste
    Edad
    35
    Agradecimientos

    Gracioso Re: Paul van Dyk - VONYC Holiday Mix (25.12.2005)

    La verdad que tenes razon chapu el tracklist es moy bueno . =)

    ya lo estoy dowlowdeando :P
    This is...

  3. #3
    Fecha de ingreso
    16 julio 2005
    Ubicación
    olivoss
    Edad
    35
    Agradecimientos

    Re: Paul van Dyk - VONYC Holiday Mix (25.12.2005)

    Cue Sheet

    TITLE "VONYC Holiday Mix 25-Dec-2006 djm2kbT"
    PERFORMER "Paul van Dyk"
    FILE "paul_van_dyk_-_VONYC_holiday_mix__25-12-2005_pvdplanet.torrent" MP3
    TRACK 01 AUDIO
    TITLE "Linking People (Marc van Linden Remix)"
    PERFORMER "01 Giuseppe Ottaviani"
    INDEX 01 00:00:00
    TRACK 02 AUDIO
    TITLE "Without you (12" Remix)"
    PERFORMER "02 Dogzilla"
    INDEX 01 06:43:00
    TRACK 03 AUDIO
    TITLE "Kallocain (Robert Nickson Remix)"
    PERFORMER "03 Endre"
    INDEX 01 13:48:00
    TRACK 04 AUDIO
    TITLE "Running Water (SHOG's 2Faces Mix)"
    PERFORMER "04 DJ Shog"
    INDEX 01 18:21:00
    TRACK 05 AUDIO
    TITLE "Skyline (Arizona Remix)"
    PERFORMER "05 Stenna"
    INDEX 01 24:25:00
    TRACK 06 AUDIO
    TITLE "Lyteo (Rank 1 Remix)"
    PERFORMER "06 Mr. Sam"
    INDEX 01 27:24:00
    TRACK 07 AUDIO
    TITLE "Falling anywhere (Rework)"
    PERFORMER "07 Kyau vs Albert"
    INDEX 01 32:31:00
    TRACK 08 AUDIO
    TITLE "Calling from Zuerich"
    PERFORMER "08 Rob Lemon"
    INDEX 01 38:22:00
    TRACK 09 AUDIO
    TITLE "Jet Lag Slave"
    PERFORMER "09 D-Nox & Becker"
    INDEX 01 42:10:00
    TRACK 10 AUDIO
    TITLE "The other Side (Deep Dish other than this Side Remix)"
    PERFORMER "10 Paul van Dyk ft Wayne Jackson"
    INDEX 01 47:56:00
    TRACK 11 AUDIO
    TITLE Rush
    PERFORMER "11 Purple Haze"
    INDEX 01 57:35:00
    TRACK 12 AUDIO
    TITLE "Second Day (Martin Roth Remix)"
    PERFORMER "12 Jose Amnesia vs Serp"
    INDEX 01 62:16:00
    TRACK 13 AUDIO
    TITLE "Need to feel Loved (Marc van Linden Mix)"
    PERFORMER "13 Reflekt ft Delline Bass"
    INDEX 01 68:33:00
    TRACK 14 AUDIO
    TITLE "Days like these"
    PERFORMER "14 Electrovoya"
    INDEX 01 75:04:00
    TRACK 15 AUDIO
    TITLE Sirene
    PERFORMER "15 Plastic Angel"
    INDEX 01 80:56:00
    TRACK 16 AUDIO
    TITLE "Superfly (Andy Moor Remix)"
    PERFORMER "16 Yellow Blackboard"
    INDEX 01 84:30:00
    TRACK 17 AUDIO
    TITLE "Playground (Nu-NRG Remix)"
    PERFORMER "17 Second Sun"
    INDEX 01 90:18:00
    TRACK 18 AUDIO
    TITLE Oblivion
    PERFORMER "18 MIDOR & Six4eight"
    INDEX 01 95:17:00
    TRACK 19 AUDIO
    TITLE "Summerdream (Paul van Dyk Remix)"
    PERFORMER "19 Kuffdam & Plant"
    INDEX 01 99:11:00
    TRACK 20 AUDIO
    TITLE "Arpeggia (High on Life) (Vocal Mix)"
    PERFORMER "20 Santiago Nino ft Paleday"
    INDEX 01 105:14:00
    TRACK 21 AUDIO
    TITLE "Cosmic String (Marc van Linden Remix)"
    PERFORMER "21 Marcos"
    INDEX 01 110:33:00
    TRACK 22 AUDIO
    TITLE Vega
    PERFORMER "22 Paul van Dyk"
    INDEX 01 113:43:00

Etiquetas para este tema

Información de tema

Usuarios viendo este tema

Actualmente hay 1 usuarios viendo este tema. (0 miembros y 1 visitantes)

Temas similares

  1. VONYC Sessions con Paul van Dyk - todos los lunes en VONYC
    Por pollux_ar en el foro Discusiones Generales de Musica
    Respuestas: 13
    Último mensaje: miércoles 18 junio de 2008, 13:31
  2. Paul van Dyk - VONYC Holiday Mix (25.12.2005)
    Por shine_coco en el foro SETs
    Respuestas: 8
    Último mensaje: viernes 17 marzo de 2006, 18:12

Permisos de publicación

  • No puedes crear nuevos temas
  • No puedes responder temas
  • No puedes subir archivos adjuntos
  • No puedes editar tus mensajes
  •